Loading...
Error

Скачать Семья полицейских / Family of Cops (Тед Котчефф / Ted Kotcheff) [1995, триллер, криминал, DVDRip] [DVO] ("Селена Интернешнл" (ОРТ)) торрент без регистрации

 
Статистика раздачи
Размер:  1,36 GB   |    Скачан:  95 раз
Сидов:  1  [  0 KB/s  ]  
 
Автор Сообщение

leon030982

[] 

Семья полицейских / Family of Cops


Год выпуска: 1995
Страна: Канада, США
Жанр: триллер, криминал
Продолжительность: 01:26:58
Перевод: Профессиональный (двухголосый, закадровый) ["Селена Интернешнл" (ОРТ)]
Роли озвучивали: Александр Белявский, Наталья Варлей
Cубтитры: нет

Режиссер: Тед Котчефф / Ted Kotcheff

В ролях: Чарльз Бронсон, Анджела Фезерстоун, Себастьян Спенс, Кейт Троттер, Кэролин Барклай, Саймон МакКоркиндэйл, Джон Вернон, Барбара Уильямс, Лесли-Энн Даун, Дэниэл Болдуин, Ким Викс, Блу Манкума, Синтия Болливо, Мигель Фернандес, Риал Эндрюс, Роберт Морелли, Ричард Зэппери, Стивен Расселл, Хезер Гордон, Наташа Ла Форс, Ричард Комар, Клодетт Минк, Марта Кристиансон

Описание: Опытный полицейский следователь Пол Фейн и его сын Эдди расследуют убийство крупного бизнесмена. К их ужасу нити ведут к двум главным подозреваемым: беспутной женушке убитого Анне и дочери Пола, трудной девчонке Джекки. Ни отец, ни брат Джекки не сомневаются, что она здесь не при чем. Но это нужно еще доказать...
После смерти своей 2-й жены Бронсон впал в депрессию и по-русски ушел в глубокий запой... Актриса Ким Уикс (поклонница Бронсона) приехала в его поместье уговорить его сняться в телефильме Семья полицейских...Уговорила ...Вывела из запоя и стала 3-й женой Бронсона.. и снялась во сех трех сериях Семьи полицейских...





Качество: DVDRip
Формат: AVI
Видео кодек: XviD
Аудио кодек: AC3
Видео: XviD build 73, 688x528 (4:3), 25.00 fps, 2 041 kbps avg
Аудио: AC3 Dolby Digital, 48 kHz, 2/0 (L,R) ch, 192.00 kbps avg

Цитата:

Рип --smit009--. Работа со звуком благодарю --alex7691--. Большое спасибо --hvostenota-- за оцифровку звука ОРТ.
Complete name : F:\Family of Cops.1995.DVDRip.ORT.avi
Format : AVI
Format/Info : Audio Video Interleave
File size : 1.36 GiB
Duration : 1h 26mn
Overall bit rate : 2 243 Kbps
Writing application : VirtualDubModRus 1.5.10.2 (build 2542/release)
Writing library : VirtualDubMod build 2542/release
Video
ID : 0
Format : MPEG-4 Visual
Format profile : Advanced Simple@L5
Format settings, BVOP : 2
Format settings, QPel : No
Format settings, GMC : No warppoints
Format settings, Matrix : Default (MPEG)
Codec ID : XVID
Codec ID/Hint : XviD
Duration : 1h 26mn
Bit rate : 2 041 Kbps
Width : 688 pixels
Height : 528 pixels
Display aspect ratio : 4:3
Frame rate : 25.000 fps
Color space : YUV
Chroma subsampling : 4:2:0
Bit depth : 8 bits
Scan type : Progressive
Compression mode : Lossy
Bits/(Pixel*Frame) : 0.225
Stream size : 1.24 GiB (91%)
Writing library : XviD 73
Audio
ID : 1
Format : AC-3
Format/Info : Audio Coding 3
Mode extension : CM (complete main)
Format settings, Endianness : Big
Codec ID : 2000
Duration : 1h 26mn
Bit rate mode : Constant
Bit rate : 192 Kbps
Channel count : 2 channels
Channel positions : Front: L R
Sampling rate : 48.0 KHz
Bit depth : 16 bits
Compression mode : Lossy
Stream size : 119 MiB (9%)
Alignment : Split accross interleaves
Interleave, duration : 40 ms (1.00 video frame)
Interleave, preload duration : 500 ms



Скачать Семья.полицейских.Family.of.Cops.(Тед.Котчефф.Ted.Kotcheff).[1995.триллер.криминал.DVDRip].[DVO].("Селена.Интернешнл".(ОРТ)).torrent без регистрации
Золото ЗОЛОТАЯ РАЗДАЧА! СКАЧАННОЕ НЕ ЗАСЧИТЫВАЕТСЯ! Золото
Дата: Зарегистрирован   [ Тип: внутренний ] Как тут cкачать?
MAGNET ссылка
MAGNET ссылка


Скачать .torrent

14 KB

Статус: проверено DHT
Скачан: торрент - 95 раз, раздача полностью - 24 раз
Размер: 1,36 GB
Оценка:  - (Голосов: 0)
Поблагодарили: 1
Поделиться ссылкой на эту раздачу с друзьями:
В контактеFacebookОдноклассникиTwitterLivejournalМой МирLiveinternet
 

 
Показать сообщения:    


Вы не можете начинать темы
Вы не можете отвечать на сообщения
Вы не можете редактировать свои сообщения
Вы не можете удалять свои сообщения
Вы не можете голосовать в опросах
Вы не можете прикреплять файлы к сообщениям
Вы можете скачивать файлы