Loading...
Error

Скачать Рэй Донован / Ray Donovan (Аллен Коултер) (Сезон 1-3, Серии 1-36 из 36) [ 2013- 2015, Криминальная драма, HDTVRip-AVC 720p] [MVO] [NewStudio] торрент без регистрации

 
Статистика раздачи
Размер:  46,4 GB   |    Скачан:  2673 раза
Сидов:  1  [  0 KB/s  ]  
 
Автор Сообщение

Nikolai.Baranov

[] 





Рэй Донован / Ray Donovan Сезон 1-3, Серии 1-36 из 36




Год выпуска: 2013- 2015
Выпущено: США, Mark Gordon Company
Жанр: Криминальная драма
Продолжительность: 00:58:00
Сезон: 1-3
Серия: 1-36
Количество серий в сезоне: 36
Перевод: Weirdie
Озвучка:Профессиональная многоголосая закадровая((NewStudio )
Субтитры: :Русские, Английские



Режиссер: Аллен Коултер

В ролях: Лив Шрайбер, Паула Малкомсон, Кэтрин Монниг, Пуч Холл, Кэррис Дорси, Девон Бэгби, Джон Войт, Стивен Бауэр, Уильям Стэнфорд Дэвис, Майкл МакГрэйди, Фрэнк Уэйли, Эллиотт Гулд, Октавиус Дж. Джонсон, Эмбир Чилдерс


Сильный молчаливый тип.

Рэй Донован решает вопросы богатых и знаменитых. В своей нише он практически незаменим, ибо наделен четким систематизированным мышлением, стальной волей, криминальным интеллектом, отсутствием рамок и границ для достижения целей и хмурым выражением лица, которое символизирует его строгий серьезный подход к делу. Человек он грубый, немногословный, и вообще относится к тому типу людей, с которыми проблем лучше не иметь, а уж тем более не оказываться с Рэем в одном помещении в одно и то же время, если у тебя все-таки есть с ним проблемы. Управы на Рэя нет ни у кого, он что-то вроде волка-одиночки, знающего свое дело, кроме которого его особо ничто и никто не колышет. А если что-то все-таки и расстраивает его чувства — справляется он с этим в полном одиночестве в компании бутылки виски.

Команда Донована представляет собой что-то вроде организованной преступной группы с навыками спецслужб и, естественно, легальным прикрытием. Подставить и отправить на зону? Обставить хату жучками и скрытыми камерами? Шантажировать компроматом? Избить до полусмерти? Вообще убить? Нет проблем, перечисленные инструменты воздействия являются стандартными методами для решения проблем безответственных, легкомысленных голливудских знаменитостей, которые как магнитом притягивают к себе неприятности и наживают себе врагов. Они готовы платить любые деньги, чтобы избавиться от своих проблем любыми способами, являя собой нехилую кормушку для таких людей, как Рэй.

Однако работа Донована не в сериале важную роль и показывается в виде ежедневной рутины. Приоритетная же сюжетная линия заключается во взаимоотношениях Рэя с отцом, который по УДО откинулся с зоны. С каждой серией зритель узнает все больше о Микки Доноване, и почему Рэй хочет чтобы тот не только держался подальше от его семьи и партнеров по бизнесу, а снова отправился топтать квадрат. Кроме того, сериал интригует энным количеством загадок, скелетов в полумраке шкафа и недомолвок, которые в неспешной манере объясняются по мере развития сюжета.

Подведем итоги. Лично я считаю, что Лив Шрайбер, Рэя, отлично справился со своей задачей. Суровый молчаливый тип, которого невозможно выбить из колеи, напоминает ледокол, медленно но верно крошащий препятствия, которым не повезло оказаться на его пути. Человек дела, а остальное все побоку. Кроме того, по его покерфейсу никогда не поймешь, что он задумал, и это придает его образу опасную непредсказуемость. Порадовал и Джон Войт в роли Микки — сиделый вор, изображающий из себя безобидного задорного старикана, со всеми на одной волне, вечно отпускающий пошлые шуточки, но по сути человек достаточно хитрый и коварный, кроме того способный не моргнув глазом убить человека, в общем персонаж непростой и притягивающий к себе немало зрительского внимания. Сериал на мой взгляд достаточно интересен, как многослойным сюжетом, постепенно и неторопливо раскрывающимся, так и главным героем. Отличная драма, изобилующая проблемами и конфликтными ситуациями, вьющимися вокруг Рэя Донована и не дающими ему соскучиться. Стильная постановка, отличная игра актеров.





Качество : HDTVRip-AVC 720p
Формат: MPEG-4
Видео кодек: H264
Видео: 3122ит/сек,1280х720(16.9),в 25.000кадр/сек,AVC(Baseline@L4.0)(1Ref Frames)
Аудио кодек: AAC
Аудио Russian:420Кбит/сек,48.0КГц,2канала,AAC,(Version4)(LC)


Звуковая дорожка сделана путем наложения чистого голоса озвучивателей на центральный канал оригинальной дорожки. Качество идентично звуковой дорожке.[/b][/color]



Сезон 1:
01. Пакет или Бита / The Bag or the Bat
02. Рот есть рот / A Mouth Is a Mouth
03. Тверк / Twerk
04. Черный кадиллак / Black Cadillac
05. Голем / The Golem
06. Новоселье / Housewarming
07. День нового рождения / New Birthday
08. Бриджит / Bridget
09. Поездка / Road Trip
10. Вечер поединка / Fite Nite
11. Баки Дэнт / Bucky F... Dent
12. Совсем одинаковые / Same Exactly

Сезон 2:
01. Я капитан / Yo Soy Capitan
02. Убер Рэй / Uber Ray
03. Драгоценности в залог / Gem and Loan
04. С-о-с-у / Suck
05. Ирландская весна / Irish Spring
06. Виагра / Viagra
07. Иди за мной / Walk This Way
08. Солнышко / Sunny
09. Снежинка / Snowflake
10. Волчек / Volcheck
11. Родэф / Rodef
12. Капитан / Captain

Сезон 3:
01. Каламазу / Kalamazoo
02. Мелкий / Ding
03. Постучи в нашу дверь / Come and Knock on Our Door
04. Завтрак Чемпионов / Breakfast of Champions
05. Рукопожатие / Handshake Deal
06. Swing Vote
07. Все достойны любви / All Must Be Loved
08. Тюльпаны / Tulips
09. Осьминог / Octopus
10. Один вечер в Ереване / One Night in Yerevan
11. Кочерга / Poker
12. Пробуждение / Exsuscito



General
Полное имя : D:\С Е Р И А Л Ы\Рэй Донован\Ray _Donovan_S01_-_S02_RUS[NewStudio]_x264_Nikolai.Baranov_HDTVRip-AVC_720p\S01\Ray _Donovan_S01Е01_RUS[NewStudio]_x264_Nikolai.Baranov_HDTVRip-AVC_720p.mp4
Формат : MPEG-4
Профиль формата : Base Media
Идентификатор кодека : isom
Размер файла : 1.45 GiB
Продолжительность : 58mn 37s
Режим общего битрейта : Variable
Общий поток : 3 547 Kbps
Дата кодирования : UTC 2014-07-23 21:21:36
Дата пометки : UTC 2014-07-23 21:21:36
Программа кодирования : Lavf51.12.1

Video
Идентификатор : 1
Формат : AVC
Формат/Информация : Advanced Video Codec
Профиль формата : Baseline@L3.1
Параметр CABAC формата : No
Параметр ReFrames формата : 1 frame
Параметр GOP формата : M=1, N=12
Идентификатор кодека : avc1
Идентификатор кодека/Информация : Advanced Video Coding
Продолжительность : 58mn 37s
Вид битрейта : Variable
Битрейт : 3 122 Kbps
Максимальный битрейт : 4 500 Kbps
Ширина : 1 280 pixels
Высота : 720 pixels
Соотношение сторон : 16:9
Режим частоты кадров : Constant
Частота кадров : 25.000 fps
Частота кадров в оригинале : 24.000 fps
Цветовое пространство : YUV
Субдискретизация насыщенности : 4:2:0
Битовая глубина : 8 bits
Тип развёртки : Progressive
Бит/(Пиксели*Кадры) : 0.136
Размер потока : 1.28 GiB (88%)
Язык : English
Дата кодирования : UTC 2014-07-23 21:21:36
Дата пометки : UTC 2014-07-23 21:21:36

Audio
Идентификатор : 2
Формат : AAC
Формат/Информация : Advanced Audio Codec
Профиль формата : LC
Идентификатор кодека : 40
Продолжительность : 58mn 37s
Вид битрейта : Variable
Битрейт : 420 Kbps
Каналы : 2 channels
Channel(s)_Original : 6 channels
Расположение каналов : Front: L C R, Side: L R, LFE
Частота : 48.0 KHz
Метод сжатия : Lossy
Размер потока : 176 MiB (12%)
Язык : Russian
Дата кодирования : UTC 2014-07-23 21:21:36
Дата пометки : UTC 2014-07-23 21:21:36



General
Полное имя : D:\С Е Р И А Л Ы\Рэй Донован\Ray _Donovan_S01_-_S02_RUS[NewStudio]_x264_Nikolai.Baranov_HDTVRip-AVC_720p\S02\Ray _Donovan_S02Е01_RUS[NewStudio]_x264_Nikolai.Baranov_HDTVRip-AVC_720p.mp4
Формат : MPEG-4
Профиль формата : Base Media
Идентификатор кодека : isom
Размер файла : 1.39 GiB
Продолжительность : 55mn 29s
Режим общего битрейта : Variable
Общий поток : 3 594 Kbps
Дата кодирования : UTC 2014-07-24 18:17:25
Дата пометки : UTC 2014-07-24 18:17:25
Программа кодирования : Lavf51.12.1

Video
Идентификатор : 1
Формат : AVC
Формат/Информация : Advanced Video Codec
Профиль формата : Baseline@L3.1
Параметр CABAC формата : No
Параметр ReFrames формата : 1 frame
Параметр GOP формата : M=1, N=12
Идентификатор кодека : avc1
Идентификатор кодека/Информация : Advanced Video Coding
Продолжительность : 55mn 29s
Вид битрейта : Variable
Битрейт : 3 111 Kbps
Максимальный битрейт : 4 500 Kbps
Ширина : 1 280 pixels
Высота : 720 pixels
Соотношение сторон : 16:9
Режим частоты кадров : Constant
Частота кадров : 25.000 fps
Частота кадров в оригинале : 24.000 fps
Цветовое пространство : YUV
Субдискретизация насыщенности : 4:2:0
Битовая глубина : 8 bits
Тип развёртки : Progressive
Бит/(Пиксели*Кадры) : 0.135
Размер потока : 1.21 GiB (87%)
Язык : English
Дата кодирования : UTC 2014-07-24 18:17:25
Дата пометки : UTC 2014-07-24 18:17:25

Audio
Идентификатор : 2
Формат : AAC
Формат/Информация : Advanced Audio Codec
Профиль формата : LC
Идентификатор кодека : 40
Продолжительность : 55mn 29s
Вид битрейта : Variable
Битрейт : 479 Kbps
Каналы : 2 channels
Channel(s)_Original : 6 channels
Расположение каналов : Front: L C R, Side: L R, LFE
Частота : 48.0 KHz
Метод сжатия : Lossy
Размер потока : 190 MiB (13%)
Язык : Russian
Дата кодирования : UTC 2014-07-24 18:17:25
Дата пометки : UTC 2014-07-24 18:17:25



Общее
Полное имя : D:\С Е Р И А Л Ы\Рэй Донован\Ray _Donovan_S01_-_S03_RUS[NewStudio]_H264_DD5.1_Nikolai.Baranov_HDTVRip-AVC_720p\S03\Ray _Donovan_S03Е01_RUS[NewStudio]_x264_Nikolai.Baranov_HDTVRip-AVC_720p.mp4
Формат : MPEG-4
Профиль формата : Base Media
Идентификатор кодека : isom
Размер файла : 1,28 Гбайт
Продолжительность : 52 м.
Режим общего битрейта : Переменный
Общий поток : 3485 Кбит/сек
Дата кодирования : UTC 2015-07-11 15:36:27
Дата пометки : UTC 2015-07-11 15:36:27
Программа кодирования : Lavf51.12.1

Видео
Идентификатор : 1
Формат : AVC
Формат/Информация : Advanced Video Codec
Профиль формата : Baseline@L3.1
Параметр CABAC формата : Нет
Параметр ReFrames формата : 1 кадр
Параметр GOP формата : M=1, N=12
Идентификатор кодека : avc1
Идентификатор кодека/Информация : Advanced Video Coding
Продолжительность : 52 м.
Вид битрейта : Переменный
Битрейт : 3042 Кбит/сек
Максимальный битрейт : 4500 Кбит/сек
Ширина : 1280 пикселей
Высота : 720 пикселей
Соотношение сторон : 16:9
Режим частоты кадров : Постоянный
Частота кадров : 25,000 кадров/сек
Частота кадров в оригинале : 24,000 кадра/сек
Цветовое пространство : YUV
Субдискретизация насыщенности : 4:2:0
Битовая глубина : 8 бит
Тип развёртки : Прогрессивная
Бит/(Пиксели*Кадры) : 0.132
Размер потока : 1,12 Гбайт (87%)
Язык : English
Дата кодирования : UTC 2015-07-11 15:36:27
Дата пометки : UTC 2015-07-11 15:36:27

Аудио
Идентификатор : 2
Формат : AAC
Формат/Информация : Advanced Audio Codec
Профиль формата : LC
Идентификатор кодека : 40
Продолжительность : 52 м.
Вид битрейта : Переменный
Битрейт : 438 Кбит/сек
Каналы : 2 канала
Channel(s)_Original : 6 каналов
Расположение каналов : Front: L C R, Side: L R, LFE
Частота : 48,0 КГц
Метод сжатия : С потерями
Размер потока : 165 Мбайт (13%)
Язык : Russian
Дата кодирования : UTC 2015-07-11 15:36:27
Дата пометки : UTC 2015-07-11 15:36:27







1сезон

2сезон

3сезон




1. Открыть торрент
2. Снять галки с тех файлов торрента, которые мы не хотим закачивать. Оставляем только на нужных нам файлах (файле).
3. Нажать О.К.

В клиенте utorrent

Инструкция

1) Открыть торрент


2) Снять галки с тех файлов торрента, которые мы не хотим закачивать:

* либо вручную, снимая с каждого файла галку( скрин №1)
* либо, нажав кнопку "Снять метки (Select None)", сняв сразу со всех файлов(скрин №2)
№1

№2

Оставляем только на нужных нам файлах (файле).

3)Нажать О.К






Внимание!!! 03.10. 2015. РАЗДАЧА ОБНОВЛЕНА. ФИнал сезона. ОБНОВИТЕ ТОРЕНТ ФАЙЛ.ПРИЯТНОГО ПРОСМОТРА .

Релиз от: Nikolai.Baranov










Скачать Рэй.Донован.Ray.Donovan.(Аллен.Коултер).(Сезон.1-3.Серии.1-36.из.36).[.2013-.2015.Криминальная.драма.HDTVRip-AVC.720p].[MVO].[NewStudio].torrent без регистрации
Золото ЗОЛОТАЯ РАЗДАЧА! СКАЧАННОЕ НЕ ЗАСЧИТЫВАЕТСЯ! Золото
Дата: Зарегистрирован   [ Тип: внутренний ] Как тут cкачать?
MAGNET ссылка
MAGNET ссылка


Скачать .torrent

131 KB

Статус: проверено DHT
Скачан: торрент - 2673 раз, раздача полностью - 0 раз
Размер: 46,4 GB
Оценка:  4,7 (Голосов: 3)
Поблагодарили: 8
Поделиться ссылкой на эту раздачу с друзьями:
В контактеFacebookОдноклассникиTwitterLivejournalМой МирLiveinternet
 

 

Wolend

[] 

Раздайте пожалуйста.
 
Показать сообщения:    


Вы не можете начинать темы
Вы не можете отвечать на сообщения
Вы не можете редактировать свои сообщения
Вы не можете удалять свои сообщения
Вы не можете голосовать в опросах
Вы не можете прикреплять файлы к сообщениям
Вы можете скачивать файлы