Loading...
Error

Скачать Ты - воплощение порока / You're The Worst (сезон 01) (Джордан Вот-Робертс) [2014, мелодрама, комедия, WEB-DL] [720p] [MVO (BaibaKo)]+[Eng] торрент без регистрации

 
Статистика раздачи
Размер:  8,37 GB   |    Скачан:  10758 раз
Сидов:  1  [  0 KB/s  ]  
 
Автор Сообщение

МихаНЕзатор

[] 



Ты - воплощение порока / You're The Worst


Год выпуска: 2014
Страна: США
Жанр: мелодрама, комедия
Продолжительность: ~ 00:27:20
Перевод: Профессиональный (многоголосый закадровый) BaibaKo
Режиссёр: Джордан Вот-Робертс

В ролях: Крис Гир, Джинджер Гонзага, Ая Кэш, Кетер Донохью, Брэндон Смит, Кулиа Прескотт, Каллард Харрис, Джонни 5, Линн А. Фридман

Описание: Комедийная любовная история о том, как два совершенно порочных человека влюбляются и пытаются совершить невозможное – завязать отношения.



Качество: WEB-DL 720p
Контейнер: MKV
Видео: AVC 3981 Кбит/сек 1280x720 (1.778) 23.976 кадр/сек
Аудио: AC-3 6 каналов 48,0 КГц 384 Кбит/сек
Аудио 2: AC-3 6 каналов 48,0 КГц 384 Кбит/сек
Субтитры: отсутствуют

Релиз-группа: BaibaKo
Перевод: Фиона Кудреватых
Озвучка: Ольга Мотрич, Юлия Котурбаш, Артемий Мирон и Акмал Гурезов
Монтаж: Виталий Мартыняк
Обложка: Антон Максимов

АНОНСЫ ПОПУЛЯРНЫХ РАЗДАЧ


Торрент обновлён, добавлена 3-10-я серия!

01. Pilot / Пилот
02. Insouciance / Безмятежность
03. Keys Open Doors / Ключи открывают двери
04. What Normal People Do / Как нормальные люди
05. Sunday Funday / Воскресенье-отрывенье
06. PTSD / ПТСР
07. Equally Dead Inside / Одинаково мертвы душой
08. Finish Your Milk / Допей молоко
09. Constant Horror and Bone-Deep Dissatisfaction / Постоянный ужас и пронизывающая неудовлетворенность
10. Fists and Feet and Stuff / Кулаки и ботинки
General
Unique ID : 247955041613694440204135895236214185984 (0xBA8A67694DCB3C199478DE8B95E6E000)
Complete name : G:\Films\You're The Worst.S01\You're.The.Worst.s01e01.HD720p.WEB-DL.Rus.Eng.BaibaKo.tv.mkv
Format : Matroska
Format version : Version 4 / Version 2
File size : 948 MiB
Duration : 27mn 20s
Overall bit rate : 4 846 Kbps
Encoded date : UTC 2014-07-19 19:22:12
Writing application : mkvmerge v6.7.0 ('Back to the Ground') 64bit built on Jan 8 2014 15:10:52
Writing library : libebml v1.3.0 + libmatroska v1.4.1
Video
ID : 1
Format : AVC
Format/Info : Advanced Video Codec
Format profile : High@L3.1
Format settings, CABAC : No
Format settings, ReFrames : 2 frames
Codec ID : V_MPEG4/ISO/AVC
Duration : 27mn 20s
Bit rate : 3 981 Kbps
Width : 1 280 pixels
Height : 720 pixels
Display aspect ratio : 16:9
Frame rate mode : Constant
Frame rate : 23.976 fps
Color space : YUV
Chroma subsampling : 4:2:0
Bit depth : 8 bits
Scan type : Progressive
Bits/(Pixel*Frame) : 0.180
Stream size : 779 MiB (82%)
Language : English
Default : Yes
Forced : No
Color primaries : BT.709
Transfer characteristics : BT.709
Matrix coefficients : BT.709
Audio #1
ID : 2
Format : AC-3
Format/Info : Audio Coding 3
Mode extension : CM (complete main)
Format settings, Endianness : Big
Codec ID : A_AC3
Duration : 27mn 20s
Bit rate mode : Constant
Bit rate : 384 Kbps
Channel(s) : 6 channels
Channel positions : Front: L C R, Side: L R, LFE
Sampling rate : 48.0 KHz
Bit depth : 16 bits
Compression mode : Lossy
Stream size : 75.1 MiB (8%)
Language : Russian
Default : Yes
Forced : No
Audio #2
ID : 3
Format : AC-3
Format/Info : Audio Coding 3
Mode extension : CM (complete main)
Format settings, Endianness : Big
Codec ID : A_AC3
Duration : 27mn 20s
Bit rate mode : Constant
Bit rate : 384 Kbps
Channel(s) : 6 channels
Channel positions : Front: L C R, Side: L R, LFE
Sampling rate : 48.0 KHz
Bit depth : 16 bits
Compression mode : Lossy
Stream size : 75.1 MiB (8%)
Language : English
Default : No
Forced : No

Внимание! Раздача ведётся путём добавления новых серий; при каждом добавлении создётся новый торрент. Чтобы начать докачку новой серии, пользователям необходимо сделать следующее:
Остановить скачивание.
Удалить старый торрент у себя из клиента (старые серии удалять не надо).
Скачать новый торрент и запустить его у себя в клиенте вместо старого, при этом указать клиенту путь в старую папку куда и должно происходить скачивание новых серий.
Ваш клиент при этом должен произвести хеширование (проверку) старой папки (если не производит сам - помогите ему сделать это), и будет докачивать только те серии которых у вас ещё нет. Старые серии при этом не удаляются, а продолжают раздаваться!
Eсли вы уже удалили старые серии, то предотвратить повторную закачку старых серий можно, отжав галочку в соответсвующих местах при запуске нового торрента. По возможности, желательно не удалять старые серии как можно дольше чтобы релизёр не столько продолжал раздавать старые серии, а смог сконцентрироваться на новых.



Скачать Ты.-.воплощение.порока.You're.The.Worst.(сезон.01).(Джордан.Вот-Робертс).[2014.мелодрама.комедия.WEB-DL].[720p].[MVO.(BaibaKo)]+[Eng].torrent без регистрации
Золото ЗОЛОТАЯ РАЗДАЧА! СКАЧАННОЕ НЕ ЗАСЧИТЫВАЕТСЯ! Золото
Дата: Зарегистрирован   [ Тип: внутренний ] Как тут cкачать?
MAGNET ссылка
MAGNET ссылка


Скачать .torrent

22 KB

Статус: проверено DHT
Скачан: торрент - 10758 раз, раздача полностью - 2 раз
Размер: 8,37 GB
Оценка:  - (Голосов: 0)
Поблагодарили: 1
Поделиться ссылкой на эту раздачу с друзьями:
В контактеFacebookОдноклассникиTwitterLivejournalМой МирLiveinternet
 

 
Показать сообщения:    


Вы не можете начинать темы
Вы не можете отвечать на сообщения
Вы не можете редактировать свои сообщения
Вы не можете удалять свои сообщения
Вы не можете голосовать в опросах
Вы не можете прикреплять файлы к сообщениям
Вы можете скачивать файлы