Loading...
Error

Скачать За пределами / Выжившая / Род человеческий / Extant (Пэрис Барклай, Мэтт Эрл Бисли, Аллен Коултер) (Сезон 1-2, Серии 1- 26 из 26) [2014-2015, Фантастика, триллер, драма, WEBDLRip-AVC][1080р] [DD5.1] [MVO] [LostFilm] торрент без регистрации

 
Статистика раздачи
Размер:  58,03 GB   |    Скачан:  8903 раза
Сидов:  1  [  0 KB/s  ]  
 
Автор Сообщение

Nikolai.Baranov

[] 






За пределами / Выжившая / Род человеческий / Extant Сезон 1-2, Серии 1-26 из 26




Год выпуска: 2014-2015
Выпущено: США, Amblin Television, CBS Television Studios
Жанр: Фантастика, триллер, драма
Продолжительность: 00:41:00
Сезон: 1-2
Серия: 1-26
Количество серий в сезоне: 26
Озвучка:Профессиональная многоголосая закадровая(LostFilm_TV)
Субтитры: НЕТ

Сайт сериала:



Режиссер: Пэрис Барклай, Мэтт Эрл Бисли, Аллен Коултер

Сценаристы:Мики Фишер, Лесли Боэм, Гэвин Йоханнсен

В ролях: Брэд Бейер, Холли Берри, Горан Вишнич, Пирс Гэнон, Камрин Менхейм, Тайлер Хилтон, Серджо Харфорд, Грэйс Гаммер, Майкл О’Нил, Жанетта Арнетт


Души не существует

Астронавт Молли Вудс возвращается из годовой космической экспедиции и узнает, что беременна. Тем временем ее муж, изобретатель, пытается протолкнуть свой проект, по внедрению роботов в человеческую жизнь. Чтобы доказать состоятельность проекта, он усыновляет первый прототип.

Создатели вложили в пилот все, что так любит современный зритель: интересные персонажи, загадки, фантастика, спецэффекты, немалый бюджет, роботы и космос. Несмотря на все это, сериал несколько перенасыщен драматически и слишком неспешно развивается.

Сценаристы попытались разнообразить историю, сделав фильм многогранным и растянуть возможные сюжетные линии. Герои неоднозначны, сюжет пока не складывается в цельную историю, и эту головоломку можно разгадывать довольно-таки долго.

Холли Берри пробует свои силы на тв. Пока ее героиня получила только толчок к развитию, поэтому об ее игре говорить рано.

Горан Вишнич старательно изображает верного мужа и достопочтенно отца семейства.

Складывается ощущение, что Хироюки Санада играет своего же героя из «Спирали».

Музыкальный ряд помогает видео ряду стать еще более насыщенным.

Еще одна попытка Стивена Спилберга закрепиться на малом экране. Говорить о результате пока слишком рано, но авторам удалось заинтриговать, а сравнения, уже на уровне пилота, с «Солярисом», «Женой астронавта», «Искуственным интеллектом» и «Я, роботом» только добавляют сериалу очков.
Сюжет:
Астронавт Молли Вудс (Холли Берри) возвращается на Землю после 13-месячной одиночной космической экспедиции и обнаруживает, что беременна, и зачатие произошло на орбитальной станции. Женщина не помнит, как это произошло, а потому предпринимает отчаянные попытки скрыть случившееся от своего мужа Джона (Горан Вишнич) и усыновленного андроида Итана (Пирс Гэнон), с которыми по прибытии у нее складываются напряженные отношения. Помимо семейных проблем, Молли также ждут неприятности с руководством Международного агентства космических исследований. Ее начальство отказывается верить в то, что Вудс случайно удалила несколько часов видео с внутренних камер наблюдения. Они ведут свое расследование и проявляют подозрительный интерес к возможному внеземному контакту. Молли придется приложить все усилия, чтобы спасти себя и семью от неминуемой опасности.




Качество : WEB-DLRip-AVC 1080p
Формат: MPEG-4
Видео кодек: H264
Видео: 7256ит/сек,1920х1080(16.9),в 25.000кадр/сек,AVC(Baseline@L4.0)(1Ref Frames)
Аудио кодек: AAC
Аудио Russian Dolby Digital 5.1:295Кбит/сек,48.0КГц,6каналов,AAC,(Version4)(LC)


Звуковая дорожка сделана путем наложения чистого голоса озвучивателей на центральный канал оригинальной дорожки. Качество идентично звуковой дорожке.



01. Возвращение / Reentry
02. Вымирание / Extinct
03. Жаль, что тебя здесь нет / Wish You Were Here
04. Убежище / Shelter
05 Что творится на Земле? (What on Earth Is Wrong?)
06 Кошмары (Nightmares)
07 Есть многое на свете... (More in Heaven and Earth)
08 Вторжение (Incursion)
09 Уход и кормление (Care and Feeding)
10 Колода карт (A Pack of Cards)
11 Новый мир (A New World)
12 До крови (Before the Blood)
13 Вознесение (Ascension)



01 Смена сценария (Change Scenario)
02 Морфозы (Morphoses)
03 Сочувствие дьяволу (Empathy for the Devil)
04 Раскрывая код (Cracking the Code)
05 Новый рубеж (The New Frontier)
06 Мечтали об эволюции? (You Say You Want an Evolution)
07 Другие (The Other)
08 Оружие и Гуманики (Arms and the Humanich)
09 По ту сторону (The Other Side)
10 Не стреляйте в гонца (Don't Shoot the Messenger)
11 Цугцванг (Zugzwang)
12 1Раздвоение (Double Vision)
13 Ради высшего блага (The Greater Good)



Общее
Полное имя : D:\ФАНТАСТИКА\Выжившая-Род человеческий-За пределами\EXTANT_2014_-_2015_S01_-_S02_RUS[LostFilm_TV]_DD5.1_H264_N.B_WEB-DLRip-AVC_1080p\S01\Extant_2014_S01Е01_RUS[LostFilm_TV]_x264_Nikolai.Baranov_WEB-DLRip-AVC_(1080p).mp4
Формат : MPEG-4
Профиль формата : Base Media
Идентификатор кодека : isom
Размер файла : 2,18 Гбайт
Продолжительность : 41 м.
Режим общего битрейта : Переменный
Общий поток : 7555 Кбит/сек
Название фильма : ReJIiZ MediaClub by BenderBEST
Дата кодирования : UTC 2014-07-27 19:54:30
Дата пометки : UTC 2014-07-27 19:54:30
Программа кодирования : Lavf51.12.1

Видео
Идентификатор : 1
Формат : AVC
Формат/Информация : Advanced Video Codec
Профиль формата : Baseline@L4
Параметр CABAC формата : Нет
Параметр ReFrames формата : 1 кадр
Параметр GOP формата : M=1, N=12
Идентификатор кодека : avc1
Идентификатор кодека/Информация : Advanced Video Coding
Продолжительность : 41 м.
Вид битрейта : Переменный
Битрейт : 7256 Кбит/сек
Максимальный битрейт : 10,5 Мбит/сек
Ширина : 1920 пикселей
Высота : 1080 пикселей
Соотношение сторон : 16:9
Режим частоты кадров : Постоянный
Частота кадров : 25,000 кадров/сек
Частота кадров в оригинале : 24,000 кадра/сек
Цветовое пространство : YUV
Субдискретизация насыщенности : 4:2:0
Битовая глубина : 8 бит
Тип развёртки : Прогрессивная
Бит/(Пиксели*Кадры) : 0.140
Размер потока : 2,09 Гбайт (96%)
Дата кодирования : UTC 2014-07-27 19:54:30
Дата пометки : UTC 2014-07-27 19:54:30

Аудио
Идентификатор : 2
Формат : AAC
Формат/Информация : Advanced Audio Codec
Профиль формата : LC
Идентификатор кодека : 40
Продолжительность : 41 м.
Вид битрейта : Переменный
Битрейт : 295 Кбит/сек
Каналы : 2 канала
Channel(s)_Original : 6 каналов
Расположение каналов : Front: L C R, Side: L R, LFE
Частота : 48,0 КГц
Метод сжатия : С потерями
Размер потока : 87,0 Мбайт (4%)
Дата кодирования : UTC 2014-07-27 19:54:30
Дата пометки : UTC 2014-07-27 19:54:30



Общее
Полное имя : D:\ФАНТАСТИКА\Выжившая-Род человеческий-За пределами\EXTANT_2014_-_2015_S01_-_S02_RUS[LostFilm_TV]_DD5.1_H264_N.B_WEB-DLRip-AVC_1080p\S02\Extant_2015_S02Е01_RUS[LostFilm_TV]_x264_Nikolai.Baranov_WEB-DLRip-AVC_(1080p).mp4
Формат : MPEG-4
Профиль формата : Base Media
Идентификатор кодека : isom
Размер файла : 2,30 Гбайт
Продолжительность : 43 м.
Режим общего битрейта : Переменный
Общий поток : 7554 Кбит/сек
Дата кодирования : UTC 2015-07-04 13:18:24
Дата пометки : UTC 2015-07-04 13:18:24
Программа кодирования : Lavf51.12.1

Видео
Идентификатор : 1
Формат : AVC
Формат/Информация : Advanced Video Codec
Профиль формата : Baseline@L4
Параметр CABAC формата : Нет
Параметр ReFrames формата : 1 кадр
Параметр GOP формата : M=1, N=12
Идентификатор кодека : avc1
Идентификатор кодека/Информация : Advanced Video Coding
Продолжительность : 43 м.
Вид битрейта : Переменный
Битрейт : 7253 Кбит/сек
Максимальный битрейт : 10,5 Мбит/сек
Ширина : 1920 пикселей
Высота : 1080 пикселей
Соотношение сторон : 16:9
Режим частоты кадров : Постоянный
Частота кадров : 25,000 кадров/сек
Частота кадров в оригинале : 24,000 кадра/сек
Цветовое пространство : YUV
Субдискретизация насыщенности : 4:2:0
Битовая глубина : 8 бит
Тип развёртки : Прогрессивная
Бит/(Пиксели*Кадры) : 0.140
Размер потока : 2,21 Гбайт (96%)
Дата кодирования : UTC 2015-07-04 13:18:24
Дата пометки : UTC 2015-07-04 13:18:24

Аудио
Идентификатор : 2
Формат : AAC
Формат/Информация : Advanced Audio Codec
Профиль формата : LC
Идентификатор кодека : 40
Продолжительность : 43 м.
Вид битрейта : Переменный
Битрейт : 296 Кбит/сек
Каналы : 2 канала
Channel(s)_Original : 6 каналов
Расположение каналов : Front: L C R, Side: L R, LFE
Частота : 48,0 КГц
Метод сжатия : С потерями
Размер потока : 92,2 Мбайт (4%)
Дата кодирования : UTC 2015-07-04 13:18:24
Дата пометки : UTC 2015-07-04 13:18:24






1сезона сезона

2сезона сезона


1. Открыть торрент
2. Снять галки с тех файлов торрента, которые мы не хотим закачивать. Оставляем только на нужных нам файлах (файле).
3. Нажать О.К.

В клиенте utorrent

Инструкция

1) Открыть торрент


2) Снять галки с тех файлов торрента, которые мы не хотим закачивать:

* либо вручную, снимая с каждого файла галку( скрин №1)
* либо, нажав кнопку "Снять метки (Select None)", сняв сразу со всех файлов(скрин №2)
№1

№2

Оставляем только на нужных нам файлах (файле).

3)Нажать О.К






Внимание!!! 15.09. 2015. РАЗДАЧА ОБНОВЛЕНА.ФИНАЛ СЕЗОНА. ОБНОВИТЕ ТОРЕНТ ФАЙЛ.ПРИЯТНОГО ПРОСМОТРА .

Релиз от: Nikolai.Baranov










Скачать За.пределами.Выжившая.Род.человеческий.Extant.(Пэрис.Барклай.Мэтт.Эрл.Бисли.Аллен.Коултер).(Сезон.1-2.Серии.1-.26.из.26).[2014-2015.Фантастика.триллер.драма.WEBDLRip-AVC][1080р].[DD5.1].[MVO].[LostFilm].torrent без регистрации
Золото ЗОЛОТАЯ РАЗДАЧА! СКАЧАННОЕ НЕ ЗАСЧИТЫВАЕТСЯ! Золото
Дата: Зарегистрирован   [ Тип: внутренний ] Как тут cкачать?
MAGNET ссылка
MAGNET ссылка


Скачать .torrent

151 KB

Статус: проверено DHT
Скачан: торрент - 8903 раз, раздача полностью - 0 раз
Размер: 58,03 GB
Оценка:  5 (Голосов: 4)
Поблагодарили: 15
Поделиться ссылкой на эту раздачу с друзьями:
В контактеFacebookОдноклассникиTwitterLivejournalМой МирLiveinternet
 

 

fill1971

[] 

Почему народ стал так скуп на комментарии? ab
Отпишитесь пожалуйста кто смотрел!
 

Madlian

[] 

Вот полностью поддержу вас! Мне, собственно тоже интересно.
 

agentstvo.garantya@yandex

[] 

И сами не отписались! А я не смотрел! А посмотрю тоже не скажу никому =D
 

Shara

[] 

fill1971

Я посмотрел весь сезон, очень понравилось, рекомендую!
 
Показать сообщения:    


Вы не можете начинать темы
Вы не можете отвечать на сообщения
Вы не можете редактировать свои сообщения
Вы не можете удалять свои сообщения
Вы не можете голосовать в опросах
Вы не можете прикреплять файлы к сообщениям
Вы можете скачивать файлы