Loading...
Error

Скачать Убийство / The Killing (Сезон 04, серии 01-02 из 6) (Эдвард Бьянчи, Агнешка Холланд) [2014 г., драма, детектив, триллер, WEBRip-AVC] [Sub RUS] (NotabeNoid) + [Orig] Eng торрент без регистрации

 
Статистика раздачи
Размер:  609 MB   |    Скачан:  5836 раз
Сидов:  1  [  0 KB/s  ]  
 
Автор Сообщение

leon030982

[] 

Убийство / The Killing (Сезон 04, серии 01 из 6)


Год выпуска: 2014
Страна: США, AMC
Жанр: драма, детектив, триллер
Продолжительность: ~00:59:04
Перевод: Русские субтитры [NotaBenoid]
Оригинальная аудио дорожка: английский

Автор идеи: Veena Sud

Режиссёр: Эдвард Бьянчи, Агнешка Холланд

В ролях: Мирей Инос, Юэль Киннаман, Элиас Котеас, Питер Сарсгаард, Грегг Генри, Билл Кэмпбелл, Брент Секстон, Мишель Форбс, Кристин Леман, Эрик Ладин

Описание: Действие развернется год спустя после событий второго сезона. Линден больше не детектив, но когда поиски пропавшей девушки приводят Холдера к череде ужасных убийств, связанных с её предыдущим расследованием, Линден придется вернуться к работе. В этом сезоне мы недосчитаемся нескольких старых персонажей, таких как Мэр Ричмонд и родители Рози Ларсен, но зато мы познакомимся с некоторыми другими, включая Тома Севарда, приговоренного к смерти убийцы; бывшего напарника Линден, Эда Скиннера и Данетт Лутц - ужасной матери, у которой пропала без вести 15-летняя дочь.



Качество: WEBRip-AVC
Формат: MKV
Видео кодек: h.264
Аудио кодек: AAC
Видео: 720x404, ~23,976 fps, ~683 kbps, ~0.087 bit/pixel
Аудио: 48 kHz, 2 ch, 128 kbps - оригинал

Цитата:

Субтитры NotaBenoid от --prestige1905--
General
Complete name : E:\INTERNET\The Killing S.04\The Killing S04E01 WEBRip x264
Format : MPEG-4
Format profile : Base Media
Codec ID : isom
File size : 295 MiB
Duration : 59mn 4s
Overall bit rate : 699 Kbps
Encoded date : UTC 2014-08-02 02:38:27
Tagged date : UTC 2014-08-02 02:38:27

Video
ID : 1
Format : AVC
Format/Info : Advanced Video Codec
Format profile : High@L3.1
Format settings, CABAC : Yes
Format settings, ReFrames : 5 frames
Codec ID : avc1
Codec ID/Info : Advanced Video Coding
Duration : 59mn 4s
Bit rate mode : Variable
Bit rate : 683 Kbps
Maximum bit rate : 2 622 Kbps
Width : 720 pixels
Height : 404 pixels
Display aspect ratio : 16:9
Frame rate mode : Constant
Frame rate : 29.970 fps
Color space : YUV
Chroma subsampling : 4:2:0
Bit depth : 8 bits
Scan type : Progressive
Bits/(Pixel*Frame) : 0.087
Stream size : 246 MiB (83%)
Writing library : x264 core 142 r2431 ac76440
Encoding settings : cabac=1 / ref=5 / deblock=1:0:0 / analyse=0x3:0x113 / me=umh / subme=8 / psy=1 / psy_rd=1.00:0.00 / mixed_ref=1 / me_range=16 / chroma_me=1 / trellis=1 / 8x8dct=1 / cqm=0 / deadzone=21,11 / fast_pskip=1 / chroma_qp_offset=-2 / threads=12 / lookahead_threads=2 / sliced_threads=0 / nr=0 / decimate=1 / interlaced=0 / bluray_compat=0 / constrained_intra=0 / bframes=3 / b_pyramid=2 / b_adapt=2 / b_bias=0 / direct=3 / weightb=1 / open_gop=0 / weightp=2 / keyint=300 / keyint_min=29 / scenecut=40 / intra_refresh=0 / rc_lookahead=50 / rc=crf / mbtree=1 / crf=19.0 / qcomp=0.60 / qpmin=0 / qpmax=69 / qpstep=4 / vbv_maxrate=17500 / vbv_bufsize=17500 / crf_max=0.0 / nal_hrd=none / filler=0 / ip_ratio=1.40 / aq=1:1.00
Encoded date : UTC 2014-08-02 02:38:27
Tagged date : UTC 2014-08-02 02:39:32
Matrix coefficients : BT.709-5, BT.1361, IEC 61966-2-4 709, SMPTE RP177

Audio
ID : 2
Format : AAC
Format/Info : Advanced Audio Codec
Format profile : LC
Codec ID : 40
Duration : 59mn 4s
Bit rate mode : Variable
Bit rate : 128 Kbps
Maximum bit rate : 148 Kbps
Channel(s) : 2 channels
Channel positions : Front: L R
Sampling rate : 48.0 KHz
Compression mode : Lossy
Stream size : 46.8 MiB (16%)
Language : English
Encoded date : UTC 2014-08-02 02:05:45
Tagged date : UTC 2014-08-02 02:39:32
Внимание! Раздача ведётся путём добавления новых серий; при каждом добавлении создаётся новый торрент. Чтобы начать докачку новой серии, пользователям необходимо сделать следующее:
(1) остановить скачивание,
(2) удалить старый торрент у себя из клиента (старые серии удалять не надо),
(3) скачать новый торрент и запустить его у себя в клиенте вместо старого, при этом указать клиенту путь в старую папку куда и должно происходить скачивание новых серий.
Ваш клиент при этом должен произвести хеширование (проверку) старой папки (если не производит сам - помогите ему сделать это), и будет докачивать только те серии которых у вас ещё нет. Старые серии при этом не удаляются, а продолжают раздаваться!
Eсли вы уже удалили старые серии, то предотвратить повторную закачку старых серий можно, отжав галочку в соответствующих местах при запуске нового торрента. По возможности, желательно не удалять старые серии как можно дольше чтобы релизёр не столько продолжал раздавать старые серии, а смог сконцентрироваться на новых.

Добавлена 2-я серия!



Скачать Убийство.The.Killing.(Сезон.04.серии.01-02.из.6).(Эдвард.Бьянчи.Агнешка.Холланд).[2014.г.драма.детектив.триллер.WEBRip-AVC].[Sub.RUS].(NotabeNoid).+.[Orig].Eng.torrent без регистрации
Золото ЗОЛОТАЯ РАЗДАЧА! СКАЧАННОЕ НЕ ЗАСЧИТЫВАЕТСЯ! Золото
Дата: Зарегистрирован   [ Тип: внутренний ] Как тут cкачать?
MAGNET ссылка
MAGNET ссылка


Скачать .torrent

13 KB

Статус: проверено DHT
Скачан: торрент - 5836 раз, раздача полностью - 4 раз
Размер: 609 MB
Оценка:  5 (Голосов: 2)
Поблагодарили: 4
Поделиться ссылкой на эту раздачу с друзьями:
В контактеFacebookОдноклассникиTwitterLivejournalМой МирLiveinternet
 

 
Показать сообщения:    


Вы не можете начинать темы
Вы не можете отвечать на сообщения
Вы не можете редактировать свои сообщения
Вы не можете удалять свои сообщения
Вы не можете голосовать в опросах
Вы не можете прикреплять файлы к сообщениям
Вы можете скачивать файлы