Loading...
Error

Скачать Хоттабыч / }{отт@бь)ч (Пётр Точилин) [2006, фантастика, фэнтези, комедия, приключения, экранизация, DVDRip] торрент без регистрации

 
Статистика раздачи
Размер:  1,47 GB   |    Скачан:  110 раз
Сидов:  1  [  0 KB/s  ]  
 
Автор Сообщение

МихаНЕзатор

[] 

Информация о фильме
Название: Хоттабыч
Оригинальное название: }{отт@бь)ч
Год выхода: 2006
Жанр: фантастика, фэнтези, комедия, приключения, экранизация
Режиссёр: Пётр Точилин


В ролях: Владимир Толоконников, Марюс Ямпольскис, Лива Круминя, Марк Гейхман, Юлия Паранова, Мила Липнер, Григорий Скряпкин, Иван Губанов, Александр Овчинников (мл.), Юрий Думчев, Константин Спасский, Ростислав Крохин, Самвел Асатрян, Николай Доброхотов, Андрей Дубровский, Полина Ганшина, Константин Кутаров, Светлана Павлова, Олег Поплавский, Михаил Рубцов, Александр Селезнев, Павел Сиротин, Мила Солдаткина, Дмитрий Таланцев, Максим Важов, Елена Волкова, Геннадий Косарев, Антон Эльдаров, Александр Шатохин, Сергей Годин, Евграф Прохоров, Юрий Волошенко



О фильме: Гена - программист по призванию и хакер по жизни. Он хороший парень. Но у него реальные проблемы. Его бросила любимая девушка, его «пасут» бандиты и выслеживают спецслужбы. Спасти его может только чудо, и оно, конечно же, случается. В жизни Гены появляется Хоттабыч, джин, который отмотал несколько тысяч лет заключения в одиночном кувшине.
И теперь готов исполнить три любых желания своего освободителя. Но у самого Хоттабыча тоже проблемы. За ним охотится его давний враг - Шайтаныч. Спасаясь от своих врагов, Гена и Хоттабыч летают на потраченном говорящей молью ковре-самолете над Красной площадью, путешествуют по сетям Мировой Паутины и практикуют магию: превращают людей в вещи, а вещи в людей…







Выпущено: Кинокомпания CTB, Россия
Продолжительность: 01:31:48
Перевод: Не требуется



Файл
Качество: DVDRip [Исходник: DVD-5]
Видео: XviD, 688x352 (1.955), 1830 Кбит/с, 25 кадр/с
Аудио: Dolby AC3, 48000 Гц, 448 Кбит/с, 6 каналов (5.1)


Автор рипа - ivandubskoj


АНОНСЫ ПОПУЛЯРНЫХ РАЗДАЧ

General
Complete name : Khottabych.2006.DVDRip.avi
Format : AVI
Format/Info : Audio Video Interleave
File size : 1.47 GiB
Duration : 1h 31mn
Overall bit rate : 2 286 Kbps
Movie name : Хоттабыч / }{отт@бь)ч (2006) DVDRip
Genre : Фантастика, фэнтези, комедия, приключения, экранизация
Recorded date : 02.08.2014
Writing application : VirtualDubMod 1.5.10.3 (build 2550/release)
Writing library : VirtualDubMod build 2550/release
Copyright : rip by ivandubskoj

Video
ID : 0
Format : MPEG-4 Visual
Format profile : Advanced Simple@L5
Format settings, BVOP : 1
Format settings, QPel : No
Format settings, GMC : No warppoints
Format settings, Matrix : Custom
Codec ID : XVID
Codec ID/Hint : XviD
Duration : 1h 31mn
Bit rate : 1 830 Kbps
Width : 688 pixels
Height : 352 pixels
Display aspect ratio : 1.955
Frame rate : 25.000 fps
Color space : YUV
Chroma subsampling : 4:2:0
Bit depth : 8 bits
Scan type : Progressive
Compression mode : Lossy
Bits/(Pixel*Frame) : 0.302
Stream size : 1.17 GiB (80%)
Writing library : XviD 73

Audio
ID : 1
Format : AC-3
Format/Info : Audio Coding 3
Mode extension : CM (complete main)
Codec ID : 2000
Duration : 1h 31mn
Bit rate mode : Constant
Bit rate : 448 Kbps
Channel(s) : 6 channels
Channel positions : Front: L C R, Side: L R, LFE
Sampling rate : 48.0 KHz
Bit depth : 16 bits
Compression mode : Lossy
Delay relative to video : 13s 302ms
Stream size : 294 MiB (20%)
Alignment : Split accross interleaves
Interleave, duration : 64 ms (1.60 video frames)
Interleave, preload duration : 500 ms
Title : Russian



Скачать Хоттабыч.}{отт@бь)ч.(Пётр.Точилин).[2006.фантастика.фэнтези.комедия.приключения.экранизация.DVDRip].torrent без регистрации
Золото ЗОЛОТАЯ РАЗДАЧА! СКАЧАННОЕ НЕ ЗАСЧИТЫВАЕТСЯ! Золото
Дата: Зарегистрирован   [ Тип: внутренний ] Как тут cкачать?
MAGNET ссылка
MAGNET ссылка


Скачать .torrent

15 KB

Статус: проверено DHT
Скачан: торрент - 110 раз, раздача полностью - 41 раз
Размер: 1,47 GB
Оценка:  5 (Голосов: 1)
Поблагодарили: 3
Поделиться ссылкой на эту раздачу с друзьями:
В контактеFacebookОдноклассникиTwitterLivejournalМой МирLiveinternet
 

 
Показать сообщения:    


Вы не можете начинать темы
Вы не можете отвечать на сообщения
Вы не можете редактировать свои сообщения
Вы не можете удалять свои сообщения
Вы не можете голосовать в опросах
Вы не можете прикреплять файлы к сообщениям
Вы можете скачивать файлы