Loading...
Error

Скачать Приветствие Джаггера / Кровь героев / The Salute Of The Jugger / The blood (Дэвид Уэбб Пиплз) [1989, фантастика, боевик, DVDRip] [MVO]+[AVO] торрент без регистрации

 
Статистика раздачи
Размер:  1,54 GB   |    Скачан:  119 раз
Сидов:  1  [  0 KB/s  ]  
 
Автор Сообщение

Marsianka

[] 

Информация о фильме
Название: Приветствие Джаггера / Кровь героев
Оригинальное название: The Salute Of The Jugger / The blood of heroes
Год выхода: 1989
Жанр: фантастика, боевик
Режиссер: Дэвид Уэбб Пиплз / David Webb Peoples
В ролях: Рутгер Хауэр, Делрой Линдо, Анна Катарина, Винсент Д`Онофрио, Ганди МакИнтайр, Джастин Монжо, Аарон Мартин, Джоан Чэн, Кэйси Хуанг, Нгуен Дин

О фильме:
Действие фильма разворачивается в следующем столетии после опустошительной войны. Единственным развлечением выживших после ядерной катастрофы людей стали жестокие соревнования - нечто среднее между рыцарскими турнирами и боями гладиаторов. Команда беспощадного Рутгера Хауэра рвется в высшую лигу, где выигрыш на самом деле является вопросом жизни и смерти.




Страна: США, Австралия
Студия: Handistom Investment, Kamisha Corporation, Kings Road Entertainment
Продолжительность: 01:39:32
Перевод: Профессиональный (многоголосый закадровый), Авторский (одноголосый закадровый) Д.Есарев [присутствует ненормативная лексика]

Файл
Кодек: XviD
Качество: DVDRip
Видео: 704x544, 25.000 fps, 1818 kbps
Аудио 1: 48 kHz, AC3, 2/0 (L,R) ch, 192 kbps.....Профессиональный (многоголосый закадровый)
Аудио 2: 48 kHz, AC3, 2/0 (L,R) ch, 192 kbps.....Авторский (одноголосый закадровый) Д.Есарев [присутствует ненормативная лексика]
Общее
Полное имя : The.Salute.Jugger.1989.DVDRip.avi
Формат : AVI
Формат/Информация : Audio Video Interleave
Размер файла : 1,54 Гбайт
Продолжительность : 1 ч. 39 м.
Общий поток : 2216 Кбит/сек
Программа кодирования : VirtualDubMod 1.5.10.2 (build 2542/release)
Библиотека кодирования : VirtualDubMod build 2542/release

Видео
Идентификатор : 0
Формат : MPEG-4 Visual
Профиль формата : Advanced Simple@L5
Параметр BVOP формата : 1
Параметр QPel формата : Нет
Параметр GMC формата : Без точки перехода
Параметр матрицы формата : Выборочная
Идентификатор кодека : XVID
Идентификатор кодека/Подсказка : XviD
Продолжительность : 1 ч. 39 м.
Битрейт : 1818 Кбит/сек
Ширина : 704 пикс.
Высота : 544 пикс.
Соотношение сторон : 1,294
Частота кадров : 25,000 кадр/сек
Цветовое пространство : YUV
Подвыборка цветности : 4:2:0
Битовая глубина : 8 бит
Тип развёртки : Прогрессивная
Метод сжатия : С потерями
Бит/(Пиксели*Кадры) : 0.190
Размер потока : 1,26 Гбайт (82%)
Библиотека кодирования : XviD 73

Аудио #1
Идентификатор : 1
Формат : AC-3
Формат/Информация : Audio Coding 3
Расширение режима : CM (complete main)
Идентификатор кодека : 2000
Продолжительность : 1 ч. 39 м.
Вид битрейта : Постоянный
Битрейт : 192 Кбит/сек
Канал(ы) : 2 канала(ов)
Расположение каналов : Front: L R
Частота : 48,0 КГц
Битовая глубина : 16 бит
Метод сжатия : С потерями
Размер потока : 137 Мбайт (9%)
Выравнивание : Разделение по промежуткам
Продолжительность промежутка : 40 мс. (1,00 видеокадр)
Время предзагрузки промежутка : 500 ms

Аудио #2
Идентификатор : 2
Формат : AC-3
Формат/Информация : Audio Coding 3
Расширение режима : CM (complete main)
Идентификатор кодека : 2000
Продолжительность : 1 ч. 39 м.
Вид битрейта : Постоянный
Битрейт : 192 Кбит/сек
Канал(ы) : 2 канала(ов)
Расположение каналов : Front: L R
Частота : 48,0 КГц
Битовая глубина : 16 бит
Метод сжатия : С потерями
Размер потока : 137 Мбайт (9%)
Выравнивание : Разделение по промежуткам
Продолжительность промежутка : 40 мс. (1,00 видеокадр)
Время предзагрузки промежутка : 500 ms
Релиз от: Leon-masl



Скачать Приветствие.Джаггера.Кровь.героев.The.Salute.Of.The.Jugger.The.blood.(Дэвид.Уэбб.Пиплз).[1989.фантастика.боевик.DVDRip].[MVO]+[AVO].torrent без регистрации
Золото ЗОЛОТАЯ РАЗДАЧА! СКАЧАННОЕ НЕ ЗАСЧИТЫВАЕТСЯ! Золото
Дата: Зарегистрирован   [ Тип: внутренний ] Как тут cкачать?
MAGNET ссылка
MAGNET ссылка


Скачать .torrent

16 KB

Статус: проверено DHT
Скачан: торрент - 119 раз, раздача полностью - 37 раз
Размер: 1,54 GB
Оценка:  - (Голосов: 0)
Поблагодарили: 1
Поделиться ссылкой на эту раздачу с друзьями:
В контактеFacebookОдноклассникиTwitterLivejournalМой МирLiveinternet
 

 
Показать сообщения:    


Вы не можете начинать темы
Вы не можете отвечать на сообщения
Вы не можете редактировать свои сообщения
Вы не можете удалять свои сообщения
Вы не можете голосовать в опросах
Вы не можете прикреплять файлы к сообщениям
Вы можете скачивать файлы