Loading...
Error

Скачать Белая собака / Белый пес / White Dog (Сэмьюэл Фуллер) [1982, триллер, драма, DVDRip] [VO] торрент без регистрации

 
Статистика раздачи
Размер:  1,36 GB   |    Скачан:  107 раз
Сидов:  1  [  0 KB/s  ]  
 
Автор Сообщение

Marsianka

[] 

Информация о фильме
Название: Белая собака (Белый пес)
Оригинальное название: White Dog
Год выхода: 1982
Жанр: триллер, драма
Режиссер: Сэмьюэл Фуллер
В ролях: Кристи МакНикол, Криста Лэнг, Вернон Веддл, Джеймисон Паркер, Карл Льюис Миллер, Кэрри Эмерсон, Хелен Сифф, Глен Гарнер, Терренс Бисор, Тони Брубэйкер
О фильме:
Голливудская старлетка Джули подбирает на дороге бездомную собаку. Животное кажется вполне дружелюбным, но вскоре выявляется одна особенность его характера — пёс люто ненавидит афроамериканцев. Опасаясь, что из-за этого собаку могут усыпить, Джули решает отдать её на перевоспитание в питомник. Хозяин питомника считает, что избавиться от собачьего «расизма» невозможно, но главный тренер Кис всё-таки соглашается взяться за это дело. Учитывая, что Кис сам является афроамериканцем, каждое занятие с собакой превращается для него в настоящую игру со смертью.


Страна: США
Студия: Wildlife Way Station - 14831 Little Tujunga Canyon Road, San Fernando Valley, Los Angeles
Продолжительность: 01:30:06
Перевод: Любительский одноголосый закадровый

Файл
Кодек: XviD
Качество: DVDRip
Видео: XviD, 1911 Кбит/с, 656x368
• №1: Русский (MP3, 2 ch, 128 Кбит/с) | Любительский одноголосый
• №2: Английский (MP3, 1 ch, 112 Кбит/с)
Семпл

Полное имя : Belyi.pes.1982.XviD.DVDRip.Fenix.avi
Формат : AVI
Формат/Информация : Audio Video Interleave
Размер файла : 1,36 Гбайт
Продолжительность : 1 ч. 30 м.
Режим общего битрейта : Переменный
Общий поток : 2155 Кбит/сек
Программа кодирования : VirtualDubMod 1.5.10.2 (build 2540/release)
Библиотека кодирования : VirtualDubMod build 2540/release

Видео
Идентификатор : 0
Формат : MPEG-4 Visual
Профиль формата : Advanced Simple@L5
Параметр BVOP формата : 1
Параметр QPel формата : Нет
Параметр GMC формата : Без точки перехода
Параметр матрицы формата : Default (MPEG)
Режим смешивания : Сжатый битовый поток
Идентификатор кодека : XVID
Идентификатор кодека/Подсказка : XviD
Продолжительность : 1 ч. 30 м.
Битрейт : 1911 Кбит/сек
Ширина : 656 пикселей
Высота : 368 пикселей
Соотношение сторон : 16:9
Частота кадров : 23,976 кадра/сек
Цветовое пространство : YUV
Субдискретизация насыщенности : 4:2:0
Битовая глубина : 8 бит
Тип развёртки : Прогрессивная
Метод сжатия : С потерями
Бит/(Пиксели*Кадры) : 0.330
Размер потока : 1,20 Гбайт (89%)
Библиотека кодирования : XviD 1.1.2 (UTC 2006-11-01)

Аудио #1
Идентификатор : 1
Формат : MPEG Audio
Версия формата : Version 1
Профиль формата : Layer 3
Режим : Joint stereo
Расширение режима : MS Stereo
Идентификатор кодека : 55
Идентификатор кодека/Подсказка : MP3
Продолжительность : 1 ч. 30 м.
Вид битрейта : Постоянный
Битрейт : 128 Кбит/сек
Каналы : 2 канала
Частота : 48,0 КГц
Метод сжатия : С потерями
Размер потока : 82,5 Мбайт (6%)
Выравнивание : Соединение по промежуткам
Продолжительность промежутка : 42 мс. (1,00 видеокадр)
Время предзагрузки промежутка : 504 мс.

Аудио #2
Идентификатор : 2
Формат : MPEG Audio
Версия формата : Version 1
Профиль формата : Layer 3
Идентификатор кодека : 55
Идентификатор кодека/Подсказка : MP3
Продолжительность : 1 ч. 30 м.
Вид битрейта : Переменный
Битрейт : 98,4 Кбит/сек
Номинальный битрейт : 112 Кбит/сек
Каналы : 1 канал
Частота : 48,0 КГц
Метод сжатия : С потерями
Размер потока : 63,4 Мбайт (5%)
Выравнивание : Соединение по промежуткам
Продолжительность промежутка : 24 мс. (0,58 видеокадр)
Время предзагрузки промежутка : 187 мс.
Библиотека кодирования : LAME3.97
Настройки программы : -m m -V 4 -q 5 -lowpass 20.5 --abr 112
Релиз от:



Скачать Белая.собака.Белый.пес.White.Dog.(Сэмьюэл.Фуллер).[1982.триллер.драма.DVDRip].[VO].torrent без регистрации
Золото ЗОЛОТАЯ РАЗДАЧА! СКАЧАННОЕ НЕ ЗАСЧИТЫВАЕТСЯ! Золото
Дата: Зарегистрирован   [ Тип: внутренний ] Как тут cкачать?
MAGNET ссылка
MAGNET ссылка


Скачать .torrent

14 KB

Статус: проверено DHT
Скачан: торрент - 107 раз, раздача полностью - 35 раз
Размер: 1,36 GB
Оценка:  - (Голосов: 0)
Поблагодарили: 1
Поделиться ссылкой на эту раздачу с друзьями:
В контактеFacebookОдноклассникиTwitterLivejournalМой МирLiveinternet
 

 
Показать сообщения:    


Вы не можете начинать темы
Вы не можете отвечать на сообщения
Вы не можете редактировать свои сообщения
Вы не можете удалять свои сообщения
Вы не можете голосовать в опросах
Вы не можете прикреплять файлы к сообщениям
Вы можете скачивать файлы