Loading...
Error

Скачать (Алексей Кузьмичев) Фотошоп-Креатив [2013 г.][SWF] торрент без регистрации

 
Статистика раздачи
Размер:  8,36 GB   |    Скачан:  541 раз
Сидов:  1  [  0 KB/s  ]  
 
Автор Сообщение

Ruvest

[] 

Фотошоп-Креатив

Производитель: Алексей Кузьмичев
Год выпуска: 2013
Язык: русский
Продолжительность: ~15 часов
Жанр: обучающее видео
Системные требования: Adobe Flash Player 10 или KMPlayer

Описание:
Как фотографу за 10 дней создать свой неповторимый стиль? Создайте свой собственный стиль в обработке фотографий.
Перейдите на новый уровень профессионального мастерства, добавив в свои работы больше творчества!

Курс включает в себя создание сложных эффектов, стилизацию фотографий и совмещение нескольких снимков в одном.
В результате его прохождения вы создадите 10 разных по стилю композиций. Вы повторите путь от фотографий-заготовок до готовых произведений.
На выполнение одной работы вам потребуется от полутора до 3 часов. Таким образом, вы пройдёте этот курс без спешки за 10 дней.

В курсе нет скучных и долгих лекций об инструментах программы Photoshop, её настройках и функциональности.
Курс построен так, что Вы не заметите, как будете переходить с одной ступени мастерства на другую.

Ступень 1. “Прокачиваем ретушёрские навыки”
• Как найти настройки кистей и других инструментов?
• Зачем нужна маска слоя?.
• Секретный способ разглаживания кожи.
• Как восстановить “замыленные” и потерянные детали?
• Как исправить причёску модели?
• Как найти пред-установки для редактирования цвета?
• Как провести цветокоррекцию и постобработку композиции?

Ступень 2. “Создаём эффекты и стиль фото”
• Как избавиться от старого фона?
• Какие ещё инструменты могут быть использованы для отделения модели от старого фона, кроме “быстрого выделения”?
• Как на новом фоне сделать реалистичную тень от модели?
• Как ускорить обработку схожих элементов?
• Как добавить воздуха в композицию?
• Как сделать переднюю часть фото четкой, а заднюю - размытой?
• Как сделать кожу пластиковой и добавить характерные блики?
• Как добавить эффект растекания и брызг?
• Как совместить несколько снимков в одну композицию?

Общее
Формат : MPEG-4
Профиль формата : Base Media / Version 2
Идентификатор кодека : mp42
Режим общего битрейта : Переменный
Общий поток : 1961 Кбит/сек
Дата кодирования : UTC 2013-10-19 14:06:46
Дата пометки : UTC 2013-10-19 14:06:46

Видео
Идентификатор : 1
Формат : AVC
Формат/Информация : Advanced Video Codec
Профиль формата : Baseline@L3.2
Параметр CABAC формата : Нет
Параметр ReFrames формата : 3 кадра
Идентификатор кодека : avc1
Идентификатор кодека/Информация : Advanced Video Coding
Битрейт : 1897 Кбит/сек
Ширина : 1440 пикселей
Высота : 860 пикселей
Соотношение сторон : 1,674
Режим частоты кадров : Переменный
Частота кадров : 30,000 кадров/сек
Минимальная частота кадров : 30,000 кадров/сек
Максимальная частота кадров : 30,030 кадров/сек
Стандарт вещания : NTSC
Цветовое пространство : YUV
Субдискретизация насыщенности : 4:2:0
Битовая глубина : 8 бит
Тип развёртки : Прогрессивная
Бит/(Пиксели*Кадры) : 0.051
Размер потока : 71,9 Мбайт (97%)
Размер потока оригинала : 71,9 Мбайт (97%)
Язык : English
Дата кодирования : UTC 2013-10-19 14:06:48
Дата пометки : UTC 2013-10-19 14:06:48
mdhd_Duration : 318167

Аудио
Идентификатор : 2
Формат : AAC
Формат/Информация : Advanced Audio Codec
Профиль формата : LC
Идентификатор кодека : 40
Вид битрейта : Переменный
Битрейт : 61,7 Кбит/сек
Максимальный битрейт : 73,7 Кбит/сек
Каналы : 2 канала
Расположение каналов : Front: L R
Частота : 44,1 КГц
Метод сжатия : С потерями
Размер потока : 2,34 Мбайт (3%)
Размер потока оригинала : 2,34 Мбайт (3%)
Язык : English
Дата кодирования : UTC 2013-10-19 14:06:48
Дата пометки : UTC 2013-10-19 14:06:48
mdhd_Duration : 318206
Видео кодек: MPEG-4
Видео: AVC, 1440 * 860, 1897 Кбит/сек, 30,000 кадров/сек
Аудио: AAC; 73,7 Кбит/сек, 44,1 КГц, 2 канала



Скачать Фотошоп-Креатив.[2013.г.][SWF].torrent без регистрации
Золото ЗОЛОТАЯ РАЗДАЧА! СКАЧАННОЕ НЕ ЗАСЧИТЫВАЕТСЯ! Золото
Дата: Зарегистрирован   [ Тип: внутренний ] Как тут cкачать?
MAGNET ссылка
MAGNET ссылка


Скачать .torrent

757 KB

Статус: * не проверено
Скачан: торрент - 541 раз, раздача полностью - 608 раз
Размер: 8,36 GB
Оценка:  4,7 (Голосов: 3)
Поблагодарили: 8
Поделиться ссылкой на эту раздачу с друзьями:
В контактеFacebookОдноклассникиTwitterLivejournalМой МирLiveinternet
 

 
Показать сообщения:    


Вы не можете начинать темы
Вы не можете отвечать на сообщения
Вы не можете редактировать свои сообщения
Вы не можете удалять свои сообщения
Вы не можете голосовать в опросах
Вы не можете прикреплять файлы к сообщениям
Вы можете скачивать файлы