Loading...
Error

Скачать Знахарь / Znachor (Ежи Гоффман) [1981, драма, мелодрама, DVDRip-AVC] [Dub]+[Pol]+[Sub Rus] торрент без регистрации

 
Статистика раздачи
Размер:  2,02 GB   |    Скачан:  164 раза
Сидов:  1  [  0 KB/s  ]  
 
Автор Сообщение

МихаНЕзатор

[] 

Информация о фильме
Название: Знахарь
Оригинальное название: Znachor
Год выхода: 1981
Жанр: драма, мелодрама
Режиссер: Ежи Гоффман


В ролях: Ежи Биньчицкий, Анна Дымна, Томаш Стокингер, Бернард Ладыш, Артур Барчиш, Анджей Копичиньский, Петр Грабовский, Божена Дыкель, Мария Хомерска, Игорь Смяловский



О фильме: Один из самых трогательных и человечных фильмов, снятый польским режиссером Ежи Гоффманом по одноименному роману Тадеуша Доленги-Мостовича. С гениальным хирургом Рафалом Вильчуром происходит трагедия, изменившая всю его жизнь – уходят жена и дочь, в тот же день он оказывается на улице без денег и документов. Ему приходится пережить несколько лет скитаний и горя. Судьба приводит его в одно из сёл, где он попадает в работники к богатому мельнику, сын которого тяжело болен и признан местным врачом безнадежным. Вильчур спасает мальчика. Сын мельника снова стал ходить, а Рафал остался в этом доме, как член семьи. Издалека потянулись к "знахарю" больные, и он помогал всем, не беря ни копейки денег.



Релиз от:



Страна: Польша
Студия: ТК "Зодиак"
Продолжительность: 02:08:07
Перевод: Дублированный



Файл
Кодек: h.264
Качество: DVDRip-AVC
Видео: ~ 1680 Кбит/с, 712x472@760x472
Звук: Русский (АС3, 2 ch, 192 Кбит/с), польский (АС3, 6 ch, 384 Кбит/с)
Субтитры: Русские


АНОНСЫ ПОПУЛЯРНЫХ РАЗДАЧ

Полная версия, без купюр. В R5 вырезано несколько натуралистичных сцен. Видеоряд заметно отличается в лучшую сторону.
Сделано на основе польского DVD9.

Полное имя : Znachor.(1.s.).1981.x264.DVDRip-AVC.0ptimus.mkv
Формат : Matroska
Версия формата : Version 2
Размер файла : 1,01 Гбайт
Продолжительность : 1 ч. 4 м.
Общий поток : 2242 Кбит/сек
Название фильма : Знахарь | Znachor (The Quack) [1981] -= DVDRip (AVC) by 0ptimus =-
Дата кодирования : UTC 2014-05-30 13:18:57
Программа кодирования : mkvmerge v6.6.0 ('The Edge Of The In Between') built on Dec 1 2013 17:55:00
Библиотека кодирования : libebml v1.3.0 + libmatroska v1.4.1

Видео
Идентификатор : 1
Формат : AVC
Формат/Информация : Advanced Video Codec
Профиль формата : High@L4.1
Параметр CABAC формата : Да
Параметр ReFrames формата : 9 кадров
Идентификатор кодека : V_MPEG4/ISO/AVC
Продолжительность : 1 ч. 4 м.
Битрейт : 1680 Кбит/сек
Ширина : 712 пикселей
Высота : 472 пикселя
Соотношение сторон : 16:10
Соотношение сторон в оригинале : 16:10
Режим частоты кадров : Постоянный
Частота кадров : 25,000 кадров/сек
Цветовое пространство : YUV
Субдискретизация насыщенности : 4:2:0
Битовая глубина : 8 бит
Тип развёртки : Прогрессивная
Бит/(Пиксели*Кадры) : 0.200
Размер потока : 745 Мбайт (72%)
Заголовок : Rip by 0ptimus
Библиотека кодирования : x264 core 133 r2334 a3ac64b
Настройки программы : cabac=1 / ref=9 / deblock=1:-3:-3 / analyse=0x3:0x113 / me=umh / subme=11 / psy=1 / psy_rd=1.00:0.20 / mixed_ref=1 / me_range=32 / chroma_me=1 / trellis=2 / 8x8dct=1 / cqm=0 / deadzone=21,11 / fast_pskip=0 / chroma_qp_offset=-3 / threads=3 / lookahead_threads=1 / sliced_threads=0 / nr=0 / decimate=0 / interlaced=0 / bluray_compat=0 / constrained_intra=0 / bframes=12 / b_pyramid=2 / b_adapt=2 / b_bias=0 / direct=3 / weightb=1 / open_gop=0 / weightp=2 / keyint=250 / keyint_min=25 / scenecut=40 / intra_refresh=0 / rc_lookahead=40 / rc=2pass / mbtree=0 / bitrate=1680 / ratetol=1.0 / qcomp=0.60 / qpmin=0 / qpmax=69 / qpstep=4 / cplxblur=20.0 / qblur=0.5 / vbv_maxrate=50000 / vbv_bufsize=50000 / nal_hrd=none / ip_ratio=1.40 / pb_ratio=1.30 / aq=1:1.00
Язык : Polish
Default : Да
Forced : Да

Аудио #1
Идентификатор : 2
Формат : AC-3
Формат/Информация : Audio Coding 3
Расширение режима : CM (complete main)
Параметр Endianness формата : Big
Идентификатор кодека : A_AC3
Продолжительность : 1 ч. 4 м.
Вид битрейта : Постоянный
Битрейт : 192 Кбит/сек
Каналы : 2 канала
Расположение каналов : Front: L R
Частота : 48,0 КГц
Битовая глубина : 16 бит
Метод сжатия : С потерями
Размер потока : 88,2 Мбайт (9%)
Заголовок : Дублированный AC3 2.0 @ 192 kbps
Язык : Russian
Default : Да
Forced : Да

Аудио #2
Идентификатор : 3
Формат : AC-3
Формат/Информация : Audio Coding 3
Расширение режима : CM (complete main)
Параметр Endianness формата : Big
Идентификатор кодека : A_AC3
Продолжительность : 1 ч. 4 м.
Вид битрейта : Постоянный
Битрейт : 384 Кбит/сек
Каналы : 6 каналов
Расположение каналов : Front: L C R, Side: L R, LFE
Частота : 48,0 КГц
Битовая глубина : 16 бит
Метод сжатия : С потерями
Размер потока : 176 Мбайт (17%)
Заголовок : AC3 5.1 @ 384 kbps
Язык : Polish
Default : Нет
Forced : Нет

Текст
Идентификатор : 4
Формат : UTF-8
Идентификатор кодека : S_TEXT/UTF8
Идентификатор кодека/Информация : UTF-8 Plain Text
Язык : Russian
Default : Нет
Forced : Нет

Меню
00:00:00.000 : :Chapter 01
00:15:55.440 : :Chapter 02
00:32:05.240 : :Chapter 03
00:47:33.560 : :Chapter 04

------------------------------------------------------------

Полное имя : Znachor.(2.s.).1981.x264.DVDRip-AVC.0ptimus.mkv
Формат : Matroska
Версия формата : Version 2
Размер файла : 1,01 Гбайт
Продолжительность : 1 ч. 3 м.
Общий поток : 2274 Кбит/сек
Название фильма : Знахарь | Znachor (The Quack) [1981] -= DVDRip (AVC) by 0ptimus =-
Дата кодирования : UTC 2014-05-30 14:35:25
Программа кодирования : mkvmerge v6.6.0 ('The Edge Of The In Between') built on Dec 1 2013 17:55:00
Библиотека кодирования : libebml v1.3.0 + libmatroska v1.4.1

Видео
Идентификатор : 1
Формат : AVC
Формат/Информация : Advanced Video Codec
Профиль формата : High@L4.1
Параметр CABAC формата : Да
Параметр ReFrames формата : 9 кадров
Идентификатор кодека : V_MPEG4/ISO/AVC
Продолжительность : 1 ч. 3 м.
Битрейт : 1653 Кбит/сек
Ширина : 712 пикселей
Высота : 472 пикселя
Соотношение сторон : 16:10
Соотношение сторон в оригинале : 16:10
Режим частоты кадров : Постоянный
Частота кадров : 25,000 кадров/сек
Цветовое пространство : YUV
Субдискретизация насыщенности : 4:2:0
Битовая глубина : 8 бит
Тип развёртки : Прогрессивная
Бит/(Пиксели*Кадры) : 0.197
Размер потока : 755 Мбайт (73%)
Заголовок : Rip by 0ptimus
Язык : Polish
Default : Да
Forced : Да

Аудио #1
Идентификатор : 2
Формат : AC-3
Формат/Информация : Audio Coding 3
Расширение режима : CM (complete main)
Параметр Endianness формата : Big
Идентификатор кодека : A_AC3
Продолжительность : 1 ч. 3 м.
Вид битрейта : Постоянный
Битрейт : 192 Кбит/сек
Каналы : 2 канала
Расположение каналов : Front: L R
Частота : 48,0 КГц
Битовая глубина : 16 бит
Метод сжатия : С потерями
Размер потока : 87,7 Мбайт (8%)
Заголовок : Дублированный AC3 2.0 @ 192 kbps
Язык : Russian
Default : Да
Forced : Да

Аудио #2
Идентификатор : 3
Формат : AC-3
Формат/Информация : Audio Coding 3
Расширение режима : CM (complete main)
Параметр Endianness формата : Big
Идентификатор кодека : A_AC3
Продолжительность : 1 ч. 3 м.
Вид битрейта : Постоянный
Битрейт : 384 Кбит/сек
Каналы : 6 каналов
Расположение каналов : Front: L C R, Side: L R, LFE
Частота : 48,0 КГц
Битовая глубина : 16 бит
Метод сжатия : С потерями
Размер потока : 175 Мбайт (17%)
Заголовок : AC3 5.1 @ 384 kbps
Язык : Polish
Default : Нет
Forced : Нет

Текст
Идентификатор : 4
Формат : UTF-8
Идентификатор кодека : S_TEXT/UTF8
Идентификатор кодека/Информация : UTF-8 Plain Text
Язык : Russian
Default : Нет
Forced : Нет

Меню
00:00:00.000 : :Chapter 01
00:05:55.640 : :Chapter 02
00:31:19.560 : :Chapter 03
00:41:15.320 : :Chapter 04
00:55:16.200 : :Chapter 05



Скачать Знахарь.Znachor.(Ежи.Гоффман).[1981.драма.мелодрама.DVDRip-AVC].[Dub]+[Pol]+[Sub.Rus].torrent без регистрации
Золото ЗОЛОТАЯ РАЗДАЧА! СКАЧАННОЕ НЕ ЗАСЧИТЫВАЕТСЯ! Золото
Дата: Зарегистрирован   [ Тип: внутренний ] Как тут cкачать?
MAGNET ссылка
MAGNET ссылка


Скачать .torrent

21 KB

Статус: проверено DHT
Скачан: торрент - 164 раз, раздача полностью - 44 раз
Размер: 2,02 GB
Оценка:  4,5 (Голосов: 2)
Поблагодарили: 4
Поделиться ссылкой на эту раздачу с друзьями:
В контактеFacebookОдноклассникиTwitterLivejournalМой МирLiveinternet
 

 
Показать сообщения:    


Вы не можете начинать темы
Вы не можете отвечать на сообщения
Вы не можете редактировать свои сообщения
Вы не можете удалять свои сообщения
Вы не можете голосовать в опросах
Вы не можете прикреплять файлы к сообщениям
Вы можете скачивать файлы