Loading...
Error

Скачать Бейсбольная лихорадка / Fever Pitch (Бобби Фаррелли / Bobby Farrelly, Питер Фаррелли / Peter Farrelly) [2005, комедия, мелодрама, DVDRip] [MVO] (1 канал) + Original Eng торрент без регистрации

 
Статистика раздачи
Размер:  1,45 GB   |    Скачан:  99 раз

Полного источника не было: 21 минута

 
Автор Сообщение

leon030982

[] 

Бейсбольная лихорадка / Fever Pitch


Год выпуска: 2005
Страна: США
Жанр: комедия, мелодрама
Продолжительность: 01:39:06
Перевод: Профессиональный (многоголосый, закадровый) 1 канал
Cубтитры: нет
Оригинальная аудиодорожка: английский

Режиссер: Бобби Фаррелли / Bobby Farrelly, Питер Фаррелли / Peter Farrelly

В ролях: Дрю Бэрримор, Джимми Фэллон, Джейсон Спивак, Джек Келер, Скотт Северанс, Джессани Финет, Морин Кейллер, Ленни Кларк, Айони Скай, КаДи Стрикленд

Описание: Преуспевающая бизнесвумен Линдзи Микс влюбляется в школьного преподавателя Бена. Поначалу Линдзи думает, что он мужчина ее мечты, и их отношения действительно кажутся идеальными, пока не наступает очередной бейсбольный сезон. И тогда у Линдзи появляется серьезная соперница — команда Boston Red Sox, к которой Бен испытывает фанатичную любовь…



Сэмпл

Качество видео: DVDRip
Формат видео: AVI
Видео кодек: XviD
Аудио кодек: AC3
Видео: XviD, 704x304 (2.35:1), 25,000 fps, ~1437 kbps avg, 0.268 bit/pixel
Аудио 1: AC3 Dolby Digital, 48 kHz, 192 kbps, 2/0 (L,R)
Аудио 2: AC3 Dolby Digital, 48 kHz, 448 kbps, 3/2 (L,C,R,l,r) + LFE ch
Общее
Полное имя : D:\Downloads\Fever.Pitch.2005.DVDRip.XviD.avi
Формат : AVI
Формат/Информация : Audio Video Interleave
Размер файла : 1,45 Гбайт
Продолжительность : 1 ч. 39 м.
Общий поток : 2091 Кбит/сек
Программа кодирования : VirtualDubMod 1.5.10.2 (build 2540/release)
Библиотека кодирования : VirtualDubMod build 2540/release
Видео
Идентификатор : 0
Формат : MPEG-4 Visual
Параметр BVOP формата : 1
Параметр QPel формата : Нет
Параметр GMC формата : Без точки перехода
Параметр матрицы формата : Default (H.263)
Режим смешивания : Сжатый битовый поток
Идентификатор кодека : DX50
Идентификатор кодека/Подсказка : DivX 5
Продолжительность : 1 ч. 39 м.
Битрейт : 1437 Кбит/сек
Ширина : 704 пикселя
Высота : 304 пикселя
Соотношение сторон : 2,35:1
Частота кадров : 25,000 кадров/сек
Цветовое пространство : YUV
Субдискретизация насыщенности : 4:2:0
Битовая глубина : 8 бит
Тип развёртки : Прогрессивная
Метод сжатия : С потерями
Бит/(Пиксели*Кадры) : 0.268
Размер потока : 1018 Мбайт (69%)
Библиотека кодирования : DivX 6.7.0 (UTC 2007-09-20)
Аудио #1
Идентификатор : 1
Формат : AC-3
Формат/Информация : Audio Coding 3
Расширение режима : CM (complete main)
Параметр Endianness формата : Big
Идентификатор кодека : 2000
Продолжительность : 1 ч. 39 м.
Вид битрейта : Постоянный
Битрейт : 192 Кбит/сек
Каналы : 2 канала
Расположение каналов : Front: L R
Частота : 48,0 КГц
Битовая глубина : 16 бит
Метод сжатия : С потерями
Размер потока : 136 Мбайт (9%)
Выравнивание : Разделение по промежуткам
Продолжительность промежутка : 40 мс. (1,00 видеокадр)
Время предзагрузки промежутка : 500 мс.
Аудио #2
Идентификатор : 2
Формат : AC-3
Формат/Информация : Audio Coding 3
Расширение режима : CM (complete main)
Параметр Endianness формата : Big
Идентификатор кодека : 2000
Продолжительность : 1 ч. 39 м.
Вид битрейта : Постоянный
Битрейт : 448 Кбит/сек
Каналы : 6 каналов
Расположение каналов : Front: L C R, Side: L R, LFE
Частота : 48,0 КГц
Битовая глубина : 16 бит
Метод сжатия : С потерями
Задержка видео : 24 мс.
Размер потока : 318 Мбайт (21%)
Выравнивание : Разделение по промежуткам
Продолжительность промежутка : 40 мс. (1,00 видеокадр)
Время предзагрузки промежутка : 500 мс.



Скачать Бейсбольная.лихорадка.Fever.Pitch.(Бобби.Фаррелли.Bobby.Farrelly.Питер.Фаррелли.Peter.Farrelly).[2005.комедия.мелодрама.DVDRip].[MVO].(1.канал).+.Original.Eng.torrent без регистрации
Золото ЗОЛОТАЯ РАЗДАЧА! СКАЧАННОЕ НЕ ЗАСЧИТЫВАЕТСЯ! Золото
Дата: Зарегистрирован   [ Тип: внутренний ] Как тут cкачать?
MAGNET ссылка
MAGNET ссылка


Скачать .torrent

15 KB

Статус: проверено DHT
Скачан: торрент - 99 раз, раздача полностью - 1 раз
Размер: 1,45 GB
Оценка:  - (Голосов: 0)
Поблагодарили: 2
Поделиться ссылкой на эту раздачу с друзьями:
В контактеFacebookОдноклассникиTwitterLivejournalМой МирLiveinternet
 

 
Показать сообщения:    


Вы не можете начинать темы
Вы не можете отвечать на сообщения
Вы не можете редактировать свои сообщения
Вы не можете удалять свои сообщения
Вы не можете голосовать в опросах
Вы не можете прикреплять файлы к сообщениям
Вы можете скачивать файлы