Loading...
Error

Скачать Большое путешествие / Невероятное путешествие великовозрастных балбесов / National Lampoon's Senior Trip (Келли Макин) [1995, комедия, DVDRip] [AVO] (Ю. Сербин) + Original Eng торрент без регистрации

 
Статистика раздачи
Размер:  1,37 GB   |    Скачан:  332 раза
Сидов:  1  [  0 KB/s  ]  
 
Автор Сообщение

leon030982

[] 

Большое путешествие / Невероятное путешествие великовозрастных балбесов / National Lampoon's Senior Trip


Год выпуска: 1995
Страна: США
Жанр: комедия
Продолжительность: 01:30:51
Перевод: Авторский (одноголосый, закадровый) Юрий Сербин
Cубтитры: нет
Оригинальная аудиодорожка: английский

Режиссер: Келли Макин / Kelly Makin

В ролях: Мэтт Фрюэр, Валери Махаффей, Лоуренс Дэйн, Томми Чонг, Джереми Реннер, Роб Мур, Эрик Эдвардс, Кевин МакДональд, Майкл Блейк, Тара Стронг

Описание: Продажный сенатор рискнул подставить Президента США, послав в Вашингтон в поддержку нового президентского билля об образовании группу школьников - самых отъявленных балбесов штата, выдавая их за "Будущее американской нации"...



Сэмпл

Качество: DVDRip
Формат: AVI
Видео кодек: XviD
Аудио кодек: AC3
Видео: XviD, 704x368 (16:9), 23,976 fps, ~1509 kbps avg, 0.243 bit/pixel
Аудио 1: AC3 Dolby Digital, 48 kHz, 192 kbps, 2/0 (L,R)
Аудио 2: AC3 Dolby Digital, 48 kHz, 448 kbps, 3/2 (L,C,R,l,r) + LFE ch
Общее
Полное имя : D:\Downloads\National.Lampoon's.Senior.Trip.1995.DVDRip.XviD.avi
Формат : AVI
Формат/Информация : Audio Video Interleave
Размер файла : 1,37 Гбайт
Продолжительность : 1 ч. 30 м.
Общий поток : 2163 Кбит/сек
Режиссёр : ale_x2008
Жанр : Comedy
Программа кодирования : VirtualDubMod 1.5.10.3 (build 2550/release)
Формат оригинала/Имя : Movie
Примечание : 01.08.2014
Видео
Идентификатор : 0
Формат : MPEG-4 Visual
Профиль формата : Advanced Simple@L5
Параметр BVOP формата : 1
Параметр QPel формата : Нет
Параметр GMC формата : Без точки перехода
Параметр матрицы формата : Default (MPEG)
Идентификатор кодека : XVID
Идентификатор кодека/Подсказка : XviD
Продолжительность : 1 ч. 30 м.
Битрейт : 1509 Кбит/сек
Ширина : 704 пикселя
Высота : 368 пикселей
Соотношение сторон : 1,913
Частота кадров : 23,976 кадра/сек
Цветовое пространство : YUV
Субдискретизация насыщенности : 4:2:0
Битовая глубина : 8 бит
Тип развёртки : Прогрессивная
Метод сжатия : С потерями
Бит/(Пиксели*Кадры) : 0.243
Размер потока : 980 Мбайт (70%)
Библиотека кодирования : XviD 73
Аудио #1
Идентификатор : 1
Формат : AC-3
Формат/Информация : Audio Coding 3
Расширение режима : CM (complete main)
Параметр Endianness формата : Big
Идентификатор кодека : 2000
Продолжительность : 1 ч. 30 м.
Вид битрейта : Постоянный
Битрейт : 192 Кбит/сек
Каналы : 2 канала
Расположение каналов : Front: L R
Частота : 48,0 КГц
Битовая глубина : 16 бит
Метод сжатия : С потерями
Размер потока : 125 Мбайт (9%)
Выравнивание : Разделение по промежуткам
Продолжительность промежутка : 42 мс. (1,00 видеокадр)
Время предзагрузки промежутка : 500 мс.
Аудио #2
Идентификатор : 2
Формат : AC-3
Формат/Информация : Audio Coding 3
Расширение режима : CM (complete main)
Параметр Endianness формата : Big
Идентификатор кодека : 2000
Продолжительность : 1 ч. 30 м.
Вид битрейта : Постоянный
Битрейт : 448 Кбит/сек
Каналы : 6 каналов
Расположение каналов : Front: L C R, Side: L R, LFE
Частота : 48,0 КГц
Битовая глубина : 16 бит
Метод сжатия : С потерями
Размер потока : 291 Мбайт (21%)
Выравнивание : Разделение по промежуткам
Продолжительность промежутка : 42 мс. (1,00 видеокадр)
Время предзагрузки промежутка : 500 мс.



Скачать Большое.путешествие.Невероятное.путешествие.великовозрастных.балбесов.National.Lampoon's.Senior.Trip.(Келли.Макин).[1995.комедия.DVDRip].[AVO].(Ю.Сербин).+.Original.Eng.torrent без регистрации
Золото ЗОЛОТАЯ РАЗДАЧА! СКАЧАННОЕ НЕ ЗАСЧИТЫВАЕТСЯ! Золото
Дата: Зарегистрирован   [ Тип: внутренний ] Как тут cкачать?
MAGNET ссылка
MAGNET ссылка


Скачать .torrent

14 KB

Статус: проверено DHT
Скачан: торрент - 332 раз, раздача полностью - 148 раз
Размер: 1,37 GB
Оценка:  5 (Голосов: 1)
Поблагодарили: 2
Поделиться ссылкой на эту раздачу с друзьями:
В контактеFacebookОдноклассникиTwitterLivejournalМой МирLiveinternet
 

 
Показать сообщения:    


Вы не можете начинать темы
Вы не можете отвечать на сообщения
Вы не можете редактировать свои сообщения
Вы не можете удалять свои сообщения
Вы не можете голосовать в опросах
Вы не можете прикреплять файлы к сообщениям
Вы можете скачивать файлы