Loading...
Error

Скачать Хранители света / The Lightkeepers (Дэниэл Адамс) [2009 г., комедия, HDTVRip] [MVO] торрент без регистрации

 
Статистика раздачи
Размер:  1,37 GB   |    Скачан:  114 раз
Сидов:  1  [  0 KB/s  ]  
 
Автор Сообщение

durik

[] 

Хранители света / The Lightkeepers

Название: Хранители света
Оригинальное название: The Lightkeepers
Год выхода: 2009
Жанр: комедия
Режиссер: Дэниэл Адамс
В ролях: Ричард Дрейфусс, Брюс Дерн, Мэми Гаммер, Блайт Даннер, Том Уисдом, Джули Харрис, Стивен Расселл, Теодора Грис, Джейсон Алан Смит, Бен Дрейфусс

О фильме:
Жизни двух смотрителей маяка, твёрдо решивших никогда больше не иметь дела с противоположным полом, полностью меняются, когда в домике на побережье появляются две прекрасные женщины.



Страна: США
Студия: Cape Filmworks, Dreyfuss / James Productions, Fish Weir Filmworks
Продолжительность: 01:32:36
Перевод: Профессиональный (многоголосый закадровый)

Кодек: XviD
Качество: HDTVRip
Видео: 720x400, 1916 kbps, 25 fps, 0,266 Bits/(Pixel*Frame)
Звук: AC3, 48 kHz, 2 ch, 192 kbps
Субтитры: Нет

Релиз от:

Автор рипа: Bathory
General
Complete name : J:RipThe.Lightkeepers.2009.HDTVRip.by_Bathory.avi
Format : AVI
Format/Info : Audio Video Interleave
File size : 1.37 GiB
Duration : 1h 32mn
Overall bit rate : 2 116 Kbps

Video
ID : 0
Format : MPEG-4 Visual
Format profile : Advanced Simple@L5
Format settings, BVOP : 1
Format settings, QPel : No
Format settings, GMC : No warppoints
Format settings, Matrix : Custom
Codec ID : XVID
Codec ID/Hint : XviD
Duration : 1h 32mn
Bit rate : 1 916 Kbps
Width : 720 pixels
Height : 400 pixels
Display aspect ratio : 16:9
Frame rate : 25.000 fps
Color space : YUV
Chroma subsampling : 4:2:0
Bit depth : 8 bits
Scan type : Progressive
Compression mode : Lossy
Bits/(Pixel*Frame) : 0.266
Stream size : 1.24 GiB (91%)
Writing library : XviD 1.2.1 (UTC 2008-12-04)

Audio
ID : 1
Format : AC-3
Format/Info : Audio Coding 3
Mode extension : CM (complete main)
Format settings, Endianness : Big
Codec ID : 2000
Duration : 1h 32mn
Bit rate mode : Constant
Bit rate : 192 Kbps
Channel(s) : 2 channels
Channel positions : Front: L R
Sampling rate : 48.0 KHz
Bit depth : 16 bits
Compression mode : Lossy
Stream size : 127 MiB (9%)
Alignment : Aligned on interleaves
Interleave, duration : 64 ms (1.60 video frames)
Interleave, preload duration : 192 ms
Title : The Lightkeepers



Скачать Хранители.света.The.Lightkeepers.(Дэниэл.Адамс).[2009.г.комедия.HDTVRip].[MVO].torrent без регистрации
Золото ЗОЛОТАЯ РАЗДАЧА! СКАЧАННОЕ НЕ ЗАСЧИТЫВАЕТСЯ! Золото
Дата: Зарегистрирован   [ Тип: внутренний ] Как тут cкачать?
MAGNET ссылка
MAGNET ссылка


Скачать .torrent

14 KB

Статус: проверено DHT
Скачан: торрент - 114 раз, раздача полностью - 11 раз
Размер: 1,37 GB
Оценка:  - (Голосов: 0)
Поблагодарили: 2
Поделиться ссылкой на эту раздачу с друзьями:
В контактеFacebookОдноклассникиTwitterLivejournalМой МирLiveinternet
 

 
Показать сообщения:    


Вы не можете начинать темы
Вы не можете отвечать на сообщения
Вы не можете редактировать свои сообщения
Вы не можете удалять свои сообщения
Вы не можете голосовать в опросах
Вы не можете прикреплять файлы к сообщениям
Вы можете скачивать файлы