Loading...
Error

Скачать Больница Никербокер / The Knick (Полный 1-ый сезон) (Стивен Содерберг) [2014, драма, HDTVRip] [MVO] (AlexFilm) торрент без регистрации

 
Статистика раздачи
Размер:  6,05 GB   |    Скачан:  800 раз
Сидов:  1  [  0 KB/s  ]  
 
Автор Сообщение

leon030982

[] 


Больница Никербокер / The Knick



Год выпуска: 2014
Страна: США
Жанр: драма
Продолжительность: 10 х ~00:56:00
Озвучание: Профессиональное (многоголосое, закадровое) (AlexFilm)
Субтитры: нет

Режиссёр: Стивен Содерберг

В ролях: Клайв Оуэн, Эрик Джонсон, Майкл Ангарано, Андре Холлэнд, Джульетта Райлэнс, Крис Салливан, Ив Хьюсон, Кэра Сеймур, Джереми Бобб, Грейнджер Хайнс, Сюзанна Савой...
Описание: Начало XX века. Доктор Джон У. Такер - хирург в нью-йоркской больнице «Никербокер». Здесь применяют передовые методы и стараются помочь всем пациентам. Но до изобретения лазерного скальпеля и компьютерной томографии еще очень далеко, а в карету скорой помощи запрягают лошадей. Врачи, медицинские сестры и другой персонал больницы делают все возможное, стараясь спасти людей.

Релиз:
Перевод: Константин Кривоногов
Монтаж и сведение звука: Сергей Мартынов
Роли озвучивали:Евгения Тихонова
Михаил Суслов
Владимир Курдов
Сергей Пономарёв
Роман Сопко (1)


Качество: HDTVRip
Формат: AVI
Видео кодек: XviD
Аудио кодек: MP3
Видео: 720x400 (1.80:1), 23.976 fps, XviD ~1400 kbps avg, 0.21 bit/pixel
Аудио Rus: 48 kHz, MPEG Layer 3, 2 ch, ~128.00 kbps avg
Аудио Eng: 48 kHz, MPEG Layer 3, 2 ch, ~128.00 kbps avg
Format : AVI
Format/Info : Audio Video Interleave
File size : 671 MiB
Duration : 55mn 35s
Overall bit rate : 1 687 Kbps
Movie name : The Knick 1x01 Method and Madness @ AlexFilm
Writing application : VirtualDubMod 1.5.10.2 (build 2542/release)
Video
ID : 0
Format : MPEG-4 Visual
Format profile : Advanced Simple@L5
Format settings, BVOP : 1
Format settings, QPel : No
Format settings, GMC : No warppoints
Format settings, Matrix : Default (MPEG)
Codec ID : XVID
Codec ID/Hint : XviD
Duration : 55mn 35s
Bit rate : 1 417 Kbps
Width : 720 pixels
Height : 400 pixels
Display aspect ratio : 16:9
Frame rate : 23.976 fps
Color space : YUV
Chroma subsampling : 4:2:0
Bit depth : 8 bits
Scan type : Progressive
Compression mode : Lossy
Bits/(Pixel*Frame) : 0.205
Stream size : 563 MiB (84%)
Writing library : XviD 1.2.1 (UTC 2008-12-04)
Audio #1
ID : 1
Format : MPEG Audio
Format version : Version 1
Format profile : Layer 3
Mode : Joint stereo
Mode extension : MS Stereo
Codec ID : 55
Codec ID/Hint : MP3
Duration : 55mn 35s
Bit rate mode : Constant
Bit rate : 128 Kbps
Channel(s) : 2 channels
Sampling rate : 48.0 KHz
Compression mode : Lossy
Stream size : 50.9 MiB (8%)
Alignment : Aligned on interleaves
Interleave, duration : 42 ms (1.00 video frame)
Interleave, preload duration : 504 ms
Title : Russian (AlexFilm)
Audio #2
ID : 2
Format : MPEG Audio
Format version : Version 1
Format profile : Layer 3
Mode : Joint stereo
Codec ID : 55
Codec ID/Hint : MP3
Duration : 55mn 35s
Bit rate mode : Constant
Bit rate : 128 Kbps
Channel(s) : 2 channels
Sampling rate : 48.0 KHz
Compression mode : Lossy
Stream size : 50.9 MiB (8%)
Alignment : Aligned on interleaves
Interleave, duration : 42 ms (1.00 video frame)
Interleave, preload duration : 504 ms
Title : English
Внимание! Раздача ведётся путём добавления новых серий; при каждом добавлении создаётся новый торрент. Чтобы начать докачку новой серии, пользователям необходимо сделать следующее:
(1) остановить скачивание,
(2) удалить старый торрент у себя из клиента (старые серии удалять не надо),
(3) скачать новый торрент и запустить его у себя в клиенте вместо старого, при этом указать клиенту путь в старую папку куда и должно происходить скачивание новых серий.
Ваш клиент при этом должен произвести хеширование (проверку) старой папки (если не производит сам - помогите ему сделать это), и будет докачивать только те серии которых у вас ещё нет. Старые серии при этом не удаляются, а продолжают раздаваться!
Eсли вы уже удалили старые серии, то предотвратить повторную закачку старых серий можно, отжав галочку в соответствующих местах при запуске нового торрента. По возможности, желательно не удалять старые серии как можно дольше, чтобы релизёр не столько продолжал раздавать старые серии, а смог сконцентрироваться на новых.

Добавлена финальная 10-я серия!



Скачать Больница.Никербокер.The.Knick.(Полный.1-ый.сезон).(Стивен.Содерберг).[2014.драма.HDTVRip].[MVO].(AlexFilm).torrent без регистрации
Золото ЗОЛОТАЯ РАЗДАЧА! СКАЧАННОЕ НЕ ЗАСЧИТЫВАЕТСЯ! Золото
Дата: Зарегистрирован   [ Тип: внутренний ] Как тут cкачать?
MAGNET ссылка
MAGNET ссылка


Скачать .torrent

31 KB

Статус: проверено DHT
Скачан: торрент - 800 раз, раздача полностью - 80 раз
Размер: 6,05 GB
Оценка:  4,3 (Голосов: 3)
Поблагодарили: 9
Поделиться ссылкой на эту раздачу с друзьями:
В контактеFacebookОдноклассникиTwitterLivejournalМой МирLiveinternet
 

 

leon030982

[] 

меня лично заинтриговал, хотя по началу хотел выключить и удалить.Вторую серию точно посмотрю
 

leon030982

[] 

Код:

добавлена 2-я серия
 

leon030982

[] 

Код:

3-я серия
 

leon030982

[] 

Код:

4-я серия
 

leon030982

[] 

Код:

5-я серия
 

leon030982

[] 

Код:

Добавлена 6-я серия
 

leon030982

[] 

Код:

Добавлена 7-я серия!
 

leon030982

[] 

Код:

Добавлена 8-я серия!
 

leon030982

[] 

+ 9-я серия
 

leon030982

[] 

Код:

Добавлена финальная 10-я серия!
 
Показать сообщения:    


Вы не можете начинать темы
Вы не можете отвечать на сообщения
Вы не можете редактировать свои сообщения
Вы не можете удалять свои сообщения
Вы не можете голосовать в опросах
Вы не можете прикреплять файлы к сообщениям
Вы можете скачивать файлы