Loading...
Error

Скачать Штамм / The Strain (Сезон 1, Серия 1-13 из 13) (Гильермо Дель Торо, Дэвид Семел, Кит Гордон) [2014, Ужасы, фантастика, драма, вампиры, экранизация, WEBDLRip-AVC 1080р] [MVO] [AlexFilm] торрент без регистрации

 
Статистика раздачи
Размер:  31,95 GB   |    Скачан:  11203 раза
Сидов:  1  [  0 KB/s  ]  
 
Автор Сообщение

Nikolai.Baranov

[] 






Штамм / The Strain




Год выпуска: 2014
Выпущено: США, Mirada
Жанр: Ужасы, фантастика, драма, вампиры, экранизация
Продолжительность: 1 x ~ 01:11:00, 12 x ~ 00:44:00
Сезон: 1
Серия: 1-13
Количество серий в сезоне: 13
Озвучка:Профессиональная многоголосая закадровая(AlexFilm)Евгения Тихонова,
Михаил Суслов,
Роман Сопко,
Сергей Пономарёв

Перевод: Doctor Joker и MartinaG
Субтитры: Русские, Английские



Режиссер: Гильермо Дель Торо, Дэвид Семел, Кит Гордон

В ролях: Дэвид Брэдли, Энн Бетанкорт, Николай Вич, Педро Мигель Арсе, Дрю Нельсон, Джо Веркилло, Джим Уотсон, Алекс Пэкстон, Джонатан Поттс, Рихард Заммель

В аэропорту Нью-Йорка экстренно приземляется самолет, полный мертвецов. Для выяснения обстоятельств их смерти на борт направляются ученые, возглавляемые лучшим городским эпидемиологом Эфраимом Гудвезером. В ходе исследований становится ясно, что пассажиры заражены вирусом вампиризма, который грозит перерасти в масштабную эпидемию, способную погубить все человечество. В обществе нарастает паника, а вызов болезни готовы бросить всего несколько человек: доктор Гудвезер, его команда медиков и группа обладающих специальными знаниями горожан, в состав которой войдет и крысолов по имени Василий Фет.

Качество : WEB-DLRip-AVC 1080p
Формат: MPEG-4
Видео кодек: H264
Видео: 7300ит/сек,1920х1080(16.9),в 25.000кадр/сек,AVC(Baseline@L4.0)(1Ref Frames)
Аудио кодек: AAC
Аудио Russian :454Кбит/сек,48.0КГц,2канала,AAC,(Version4)(LC)


Звуковая дорожка сделана путем наложения чистого голоса озвучивателей на центральный канал оригинальной дорожки. Качество идентично звуковой дорожке.



01. Night Zero / Ночь заражения
02. The Box / Ящик
03. Gone Smooth / Всё прошло гладко
04. It's Not for Everyone / Не для всех
05. Runaways / Сбежавшие
06. Occultation / Затмение
07. For Services Rendered / За оказанные услуги
08. Creatures of the Night / Создания ночи
09. The Disappeared / Исчезновение
10. Loved Ones / Любимые
11. The Third Rail / Третий Рельс
12. Last Rites / Последние почести
13. The Master / Мастер



General
Полное имя : D:\У Ж А С Ы\Штамм\THE_STRAIN_2014_S01_RUS[AlexFilm]_DD5.1_x264_Nikolai.Baranov_WEB-DLRip-AVC_(1080p)\The_Strain_2014_S01E01_RUS[AlexFilm]_DD5.1_x264_Nikolai.Baranov_WEB-DLRip-AVC_(1080p).mp4
Формат : MPEG-4
Профиль формата : Base Media
Идентификатор кодека : isom
Размер файла : 3.88 GiB
Продолжительность : 1h 11mn
Режим общего битрейта : Variable
Общий поток : 7 759 Kbps
Название фильма : The Strain 1x01 Night Zero @ AlexFilm
Дата кодирования : UTC 2014-07-29 22:38:48
Дата пометки : UTC 2014-07-29 22:38:48
Программа кодирования : Lavf51.12.1

Video
Идентификатор : 1
Формат : AVC
Формат/Информация : Advanced Video Codec
Профиль формата : Baseline@L4.0
Параметр CABAC формата : No
Параметр ReFrames формата : 1 frame
Параметр GOP формата : M=1, N=12
Идентификатор кодека : avc1
Идентификатор кодека/Информация : Advanced Video Coding
Продолжительность : 1h 11mn
Вид битрейта : Variable
Битрейт : 7 300 Kbps
Максимальный битрейт : 10.5 Mbps
Ширина : 1 920 pixels
Высота : 1 080 pixels
Соотношение сторон : 16:9
Режим частоты кадров : Constant
Частота кадров : 25.000 fps
Частота кадров в оригинале : 24.000 fps
Цветовое пространство : YUV
Субдискретизация насыщенности : 4:2:0
Битовая глубина : 8 bits
Тип развёртки : Progressive
Бит/(Пиксели*Кадры) : 0.141
Размер потока : 3.65 GiB (94%)
Язык : English
Дата кодирования : UTC 2014-07-29 22:38:48
Дата пометки : UTC 2014-07-29 22:38:48

Audio
Идентификатор : 2
Формат : AAC
Формат/Информация : Advanced Audio Codec
Профиль формата : LC
Идентификатор кодека : 40
Продолжительность : 1h 11mn
Вид битрейта : Variable
Битрейт : 454 Kbps
Каналы : 2 channels
Channel(s)_Original : 6 channels
Расположение каналов : Front: L C R, Side: L R, LFE
Частота : 48.0 KHz
Метод сжатия : Lossy
Размер потока : 233 MiB (6%)
Язык : Russian
Дата кодирования : UTC 2014-07-29 22:38:48
Дата пометки : UTC 2014-07-29 22:38:48







1. Открыть торрент
2. Снять галки с тех файлов торрента, которые мы не хотим закачивать. Оставляем только на нужных нам файлах (файле).
3. Нажать О.К.

В клиенте utorrent

Инструкция

1) Открыть торрент


2) Снять галки с тех файлов торрента, которые мы не хотим закачивать:

* либо вручную, снимая с каждого файла галку( скрин №1)
* либо, нажав кнопку "Снять метки (Select None)", сняв сразу со всех файлов(скрин №2)
№1

№2

Оставляем только на нужных нам файлах (файле).

3)Нажать О.К




Внимание!!! 07.10. 2014. РАЗДАЧА ОБНОВЛЕНА.финал сезона.ОБНОВИТЕ ТОРЕНТ ФАЙЛ.ПРИЯТНОГО ПРОСМОТРА .

Релиз от: Nikolai.Baranov










Скачать Штамм.The.Strain.(Сезон.1.Серия.1-13.из.13).(Гильермо.Дель.Торо.Дэвид.Семел.Кит.Гордон).[2014.Ужасы.фантастика.драма.вампиры.экранизация.WEBDLRip-AVC.1080р].[MVO].[AlexFilm].torrent без регистрации
Золото ЗОЛОТАЯ РАЗДАЧА! СКАЧАННОЕ НЕ ЗАСЧИТЫВАЕТСЯ! Золото
Дата: Зарегистрирован   [ Тип: внутренний ] Как тут cкачать?
MAGNET ссылка
MAGNET ссылка


Скачать .torrent

86 KB

Статус: проверено DHT
Скачан: торрент - 11203 раз, раздача полностью - 63 раз
Размер: 31,95 GB
Оценка:  3 (Голосов: 2)
Поблагодарили: 5
Поделиться ссылкой на эту раздачу с друзьями:
В контактеFacebookОдноклассникиTwitterLivejournalМой МирLiveinternet
 

 

Motovilov

[] 

вампиры, экранизация ag новопридуманные жанры? az
 
Показать сообщения:    


Вы не можете начинать темы
Вы не можете отвечать на сообщения
Вы не можете редактировать свои сообщения
Вы не можете удалять свои сообщения
Вы не можете голосовать в опросах
Вы не можете прикреплять файлы к сообщениям
Вы можете скачивать файлы