Loading...
Error

Скачать Легенды / Legends (Сезон 01, серии 01-03 из 10) (Дэвид Семел) [2014, драма, криминал, WEB-DLRip] [MVO] (AlexFilm) торрент без регистрации

 
Статистика раздачи
Размер:  1,46 GB   |    Скачан:  141 раз
Сидов:  1  [  0 KB/s  ]  
 
Автор Сообщение

leon030982

[] 


Легенды / Legends




Год выпуска: 2014
Страна: США
Жанр: драма, криминал
Продолжительность: 3 х ~ 00:42:00
Перевод: Профессиональный (многоголосый, закадровый) (AlexFilm)
Субтитры: нет
Режиссёры: Дэвид Семел, Брэд Тернер, Джон Беринг

В ролях: Шон Бин, Эли Лартер, Эмбер Валлетта, Мэйсон Кук, Тина Мажорино, Роб Майес, Стив Харрис, Моррис Честнат, Джейсон Йоркер, Роксана Бруссо, Дэвид Мюнье, Сэмми Шейк, Омид Абтахи.
Описание: Работая на ФБР, Мартин специализировался на работе под глубоким прикрытием, буквально полностью перевоплощался в другую личность, теперь же он простой частный детектив. Жизнь главного героя круто меняется, когда Мартин узнает, что, возможно, он не тот, кем себя считает. И теперь ему предстоит докопаться до истины: он страдает заурядным раздвоением личности или является частью тайного плана ФБР?
Релиз:
Перевод: Константин Кривоногов
Монтаж и сведение звука: Сергей Мартынов
Роли озвучивали:Евгения Тихонова
Михаил Суслов
Владимир Курдов
Сергей Пономарёв
Роман Сопко (1)


Качество: WEB-DLRip
Формат: AVI
Видео кодек: XviD
Аудио кодек: MP3
Видео: 720x400 (1.80:1), 23.976 fps, XviD ~1400 kbps avg, 0.20 bit/pixel
Аудио Rus: 48 kHz, MPEG Layer 3, 2 ch, ~128.00 kbps avg
Аудио Eng: 48 kHz, MPEG Layer 3, 2 ch, ~128.00 kbps avg
Format : AVI
Format/Info : Audio Video Interleave
File size : 500 MiB
Duration : 42mn 0s
Overall bit rate : 1 665 Kbps
Movie name : Legends 1x01 Pilot @ AlexFilm
Writing application : VirtualDubMod 1.5.10.2 (build 2542/release)
Video
ID : 0
Format : MPEG-4 Visual
Format profile : Advanced Simple@L5
Format settings, BVOP : 1
Format settings, QPel : No
Format settings, GMC : No warppoints
Format settings, Matrix : Default (MPEG)
Codec ID : XVID
Codec ID/Hint : XviD
Duration : 42mn 0s
Bit rate : 1 395 Kbps
Width : 720 pixels
Height : 400 pixels
Display aspect ratio : 16:9
Frame rate : 23.976 fps
Color space : YUV
Chroma subsampling : 4:2:0
Bit depth : 8 bits
Scan type : Progressive
Compression mode : Lossy
Bits/(Pixel*Frame) : 0.202
Stream size : 419 MiB (84%)
Writing library : XviD 1.2.1 (UTC 2008-12-04)
Audio #1
ID : 1
Format : MPEG Audio
Format version : Version 1
Format profile : Layer 3
Mode : Joint stereo
Mode extension : MS Stereo
Codec ID : 55
Codec ID/Hint : MP3
Duration : 42mn 0s
Bit rate mode : Constant
Bit rate : 128 Kbps
Channel(s) : 2 channels
Sampling rate : 48.0 KHz
Compression mode : Lossy
Stream size : 38.5 MiB (8%)
Alignment : Aligned on interleaves
Interleave, duration : 42 ms (1.00 video frame)
Interleave, preload duration : 504 ms
Title : Russian (AlexFilm)
Audio #2
ID : 2
Format : MPEG Audio
Format version : Version 1
Format profile : Layer 3
Mode : Joint stereo
Codec ID : 55
Codec ID/Hint : MP3
Duration : 42mn 0s
Bit rate mode : Constant
Bit rate : 128 Kbps
Channel(s) : 2 channels
Sampling rate : 48.0 KHz
Compression mode : Lossy
Stream size : 38.5 MiB (8%)
Alignment : Aligned on interleaves
Interleave, duration : 42 ms (1.00 video frame)
Interleave, preload duration : 504 ms
Title : English
Внимание! Раздача ведётся путём добавления новых серий; при каждом добавлении создаётся новый торрент. Чтобы начать докачку новой серии, пользователям необходимо сделать следующее:
(1) остановить скачивание,
(2) удалить старый торрент у себя из клиента (старые серии удалять не надо),
(3) скачать новый торрент и запустить его у себя в клиенте вместо старого, при этом указать клиенту путь в старую папку куда и должно происходить скачивание новых серий.
Ваш клиент при этом должен произвести хеширование (проверку) старой папки (если не производит сам - помогите ему сделать это), и будет докачивать только те серии которых у вас ещё нет. Старые серии при этом не удаляются, а продолжают раздаваться!
Eсли вы уже удалили старые серии, то предотвратить повторную закачку старых серий можно, отжав галочку в соответствующих местах при запуске нового торрента. По возможности, желательно не удалять старые серии как можно дольше, чтобы релизёр не столько продолжал раздавать старые серии, а смог сконцентрироваться на новых.



Скачать Легенды.Legends.(Сезон.01.серии.01-03.из.10).(Дэвид.Семел).[2014.драма.криминал.WEB-DLRip].[MVO].(AlexFilm).torrent без регистрации
Золото ЗОЛОТАЯ РАЗДАЧА! СКАЧАННОЕ НЕ ЗАСЧИТЫВАЕТСЯ! Золото
Дата: Зарегистрирован   [ Тип: внутренний ] Как тут cкачать?
MAGNET ссылка
MAGNET ссылка


Скачать .torrent

15 KB

Статус: проверено DHT
Скачан: торрент - 141 раз, раздача полностью - 28 раз
Размер: 1,46 GB
Оценка:  4,5 (Голосов: 2)
Поблагодарили: 4
Поделиться ссылкой на эту раздачу с друзьями:
В контактеFacebookОдноклассникиTwitterLivejournalМой МирLiveinternet
 

 

leon030982

[] 

2-я серия
 

leon030982

[] 

обновлено
 
Показать сообщения:    


Вы не можете начинать темы
Вы не можете отвечать на сообщения
Вы не можете редактировать свои сообщения
Вы не можете удалять свои сообщения
Вы не можете голосовать в опросах
Вы не можете прикреплять файлы к сообщениям
Вы можете скачивать файлы