Loading...
Error

Скачать Точка прерывания / Termination Point (Джейсон Бурк) [2007, фантастика, триллер, DVDRip] [MVO] торрент без регистрации

 
Статистика раздачи
Размер:  1,37 GB   |    Скачан:  205 раз
Сидов:  1  [  0 KB/s  ]  
 
Автор Сообщение

МихаНЕзатор

[] 



Страна: Канада
Производство: Cinetel Films, Eagle Pictures, Insight Film Studios
Жанр: фантастика, триллер
Год выпуска: 2007
Продолжительность: 01:30:28
Перевод: Профессиональный многоголосый
Оригинальная аудиодорожка: Нет
Режиссер: Джейсон Бурк


В ролях: Джейсон Пристли, Лу Даймонд Филлипс, Гарвин Санфорд, Гэри Хадсон, Стефани фон Пфеттен, Майкл Эклунд, Брэдли Страйкер, Эрин Карплак, Райан Бут, Майкл Беняер



Описание: Сверхсекретный военный проект путешествий во времени срочно закрывается правительством когда выясняется, что эти перемещения способны вызвать глобальное уничтожение планеты. Но ведущий ученый таинственно исчезает, вместе с ним исчезает и готовый прототип устройства… Поиски не дают никакого результата. Когда его имя случайно всплывает в списках пассажиров рейса небольшой авиакомпании, то на захват бросаются все силы, и начинается смертельная погоня за самолетом, способным перемещаться не только в пространстве, но и во времени…



Автор рипа:



Исходник: DVD5 R2
Тип релиза: DVDRip
Контейнер: AVI
Видео: XviD, 1963 Кбит/с, 704х368
Аудио: АС3, 2 ch, 192 Кбит/с
Общее
Полное имя : D:залитьТочка прерывания.avi
Формат : AVI
Формат/Информация : Audio Video Interleave
Размер файла : 1,37 Гбайт
Продолжительность : 1 ч. 30 м.
Общий поток : 2164 Кбит/сек
Программа кодирования : VirtualDubMod 1.5.10.3 | www.virtualdub-fr.org || (build 2550/release)
Библиотека кодирования : VirtualDubMod build 2550/release

Видео
Идентификатор : 0
Формат : MPEG-4 Visual
Профиль формата : Advanced Simple@L5
Параметр BVOP формата : 2
Параметр QPel формата : Нет
Параметр GMC формата : Без точки перехода
Параметр матрицы формата : Default (MPEG)
Идентификатор кодека : XVID
Идентификатор кодека/Подсказка : XviD
Продолжительность : 1 ч. 30 м.
Битрейт : 1963 Кбит/сек
Ширина : 704 пикселя
Высота : 368 пикселей
Соотношение сторон : 1,913
Частота кадров : 23,976 кадра/сек
Цветовое пространство : YUV
Субдискретизация насыщенности : 4:2:0
Битовая глубина : 8 бит
Тип развёртки : Прогрессивная
Метод сжатия : С потерями
Бит/(Пиксели*Кадры) : 0.316
Размер потока : 1,24 Гбайт (91%)
Библиотека кодирования : XviD 1.2.1 (UTC 2008-12-04)

Аудио
Идентификатор : 1
Формат : AC-3
Формат/Информация : Audio Coding 3
Расширение режима : CM (complete main)
Параметр Endianness формата : Big
Идентификатор кодека : 2000
Продолжительность : 1 ч. 30 м.
Вид битрейта : Постоянный
Битрейт : 192 Кбит/сек
Каналы : 2 канала
Расположение каналов : Front: L R
Частота : 48,0 КГц
Битовая глубина : 16 бит
Метод сжатия : С потерями
Размер потока : 124 Мбайт (9%)
Выравнивание : Разделение по промежуткам
Продолжительность промежутка : 42 мс. (1,00 видеокадр)
Время предзагрузки промежутка : 500 мс.



Скачать Точка.прерывания.Termination.Point.(Джейсон.Бурк).[2007.фантастика.триллер.DVDRip].[MVO].torrent без регистрации
Золото ЗОЛОТАЯ РАЗДАЧА! СКАЧАННОЕ НЕ ЗАСЧИТЫВАЕТСЯ! Золото
Дата: Зарегистрирован   [ Тип: внутренний ] Как тут cкачать?
MAGNET ссылка
MAGNET ссылка


Скачать .torrent

16 KB

Статус: проверено DHT
Скачан: торрент - 205 раз, раздача полностью - 101 раз
Размер: 1,37 GB
Оценка:  - (Голосов: 0)
Поблагодарили: 2
Поделиться ссылкой на эту раздачу с друзьями:
В контактеFacebookОдноклассникиTwitterLivejournalМой МирLiveinternet
 

 
Показать сообщения:    


Вы не можете начинать темы
Вы не можете отвечать на сообщения
Вы не можете редактировать свои сообщения
Вы не можете удалять свои сообщения
Вы не можете голосовать в опросах
Вы не можете прикреплять файлы к сообщениям
Вы можете скачивать файлы