Loading...
Error

Скачать О, что за чудесная война / Oh! What a Lovely War (Ричард Аттeнборо) [1969, военный, комедия, мюзикл, DVDRip-AVC] [MVO]+[Sub] торрент без регистрации

 
Статистика раздачи
Размер:  2,05 GB   |    Скачан:  137 раз
Сидов:  1  [  0 KB/s  ]  
 
Автор Сообщение

Marsianka

[] 

Информация о фильме
Название: О, что за чудесная война
Оригинальное название: Oh! What a Lovely War
Год выхода: 1969
Жанр: военный, комедия, мюзикл
Режиссер: Ричард Аттeнборо / Richard Attenborough
В ролях: Ральф Ричардсон, Мериэл Форбс, Уэнсли Пайти, Рут Кеттуэлл, Иэн Холм, Джон Гилгуд, Кеннет Мор, Джон Клементс, Пол Дэйнемэн, Памела Эбботт, Лоуренс Оливье, Майкл Редгрэйв, Джон Миллз, Джек Хоукинс, Ванесса Редгрэйв, Сюзанна Йорк, Дирк Богард.

О фильме:
"О! Какая милая война" - брызжущая, резко стилизованная музыкальная сатира о 1-ой мировой войне с участием лучших актеров Британии. В самом начале главы европейских государств пытаются решить, на чьей стороне выступить в войне, а тут эрцгерцога Франца Фердинанда убивают во время королевской фотосъемки. Фильм рассказывает о 1-ой Мировой войне посредством серии сюрреалистических эпизодов, чередующихся между линиями фронта во Франции и линией фронта в английском тылу, где генералы и дипломаты ведут дистанционную войну, на которой на самом деле гибнут юные и бедные. В частности, в фильме прослеживается сюжетная линия семьи Смитов, чьи сыновья, дуриком записавшиеся в армию в карнавальной атмосфере Брайтона, все погибают за свою страну. Тем временем британская аристократия тоже вносит свою толику в борьбу с врагом: Элеанор (Сюзанна Йорк) и Стивен (Дирк Богард) бойкотируют немецкое вино. На фоне неоновых лозунгов и светового табло, на котором ведется счет потерям на полях сражений, дается множество музыкальных номеров 1914-1918 годов с явно антивоенным оттенком.



Страна: Великобритания
Студия: Accord Productions
Продолжительность: 02:18:26.368
Перевод: Профессиональный (многоголосый закадровый) ТРК "Петербург - Пятый канал"

Файл
Кодек: h.264
Качество: DVDRip-AVC
Видео: 720x432 (2.35:1) @ 1014x432 (анаморф), 25.000 fps, AVC, ~1734 Kbps, 0.223 bits/pixel
Русский, 48.0 KHz, AC3, 1 ch, 192 Kbps (песни не переведены)
Английский, 48.0 KHz, AC3, 2 ch, 192 Kbps (двойное моно)
Субтитры: Английские, VobSub (полные, вкл. песни)
Исходник R2 DVD9
Общее
Уникальный идентификатор : 245811712560057973076088450923738088073 (0xB8ED9D2158498551B1BE70AEB246C289)
Полное имя : H:FilmsO_chto_za_chudesnaya_voina.1969.DVDRip-AVC.mkv
Формат : Matroska
Версия формата : Version 4 / Version 2
Размер файла : 2,05 Гбайт
Продолжительность : 2 ч. 18 м.
Общий поток : 2123 Кбит/сек
Дата кодирования : UTC 2014-08-26 17:14:21
Программа кодирования : mkvmerge v7.1.0 ('Good Love') 64bit built on Jul 27 2014 13:06:55
Библиотека кодирования : libebml v1.3.0 + libmatroska v1.4.1
_STATISTICS_WRITING_APP : mkvmerge v7.1.0 ('Good Love') 64bit built on Jul 27 2014 13:06:55
_STATISTICS_WRITING_DATE_UTC : 2014-08-26 17:14:21
_STATISTICS_TAGS : BPS DURATION NUMBER_OF_FRAMES NUMBER_OF_BYTES
DURATION : 02:18:20.867000000
NUMBER_OF_FRAMES : 1916
NUMBER_OF_BYTES : 2416708

Видео
Идентификатор : 1
Формат : AVC
Формат/Информация : Advanced Video Codec
Профиль формата : High@L4.1
Параметр CABAC формата : Да
Параметр ReFrames формата : 16 кадров
Идентификатор кодека : V_MPEG4/ISO/AVC
Продолжительность : 2 ч. 18 м.
Битрейт : 1734 Кбит/сек
Ширина : 720 пикселей
Высота : 432 пикселя
Соотношение сторон : 2,35:1
Соотношение сторон в оригинале : 2,35:1
Режим частоты кадров : Постоянный
Частота кадров : 25,000 кадров/сек
Цветовое пространство : YUV
Субдискретизация насыщенности : 4:2:0
Битовая глубина : 8 бит
Тип развёртки : Прогрессивная
Бит/(Пиксели*Кадры) : 0.223
Размер потока : 1,64 Гбайт (80%)
Библиотека кодирования : x264 core 142 r2431 ac76440
Настройки программы : cabac=1 / ref=16 / deblock=1:0:0 / analyse=0x3:0x133 / me=umh / subme=10 / psy=1 / psy_rd=1.10:0.10 / mixed_ref=1 / me_range=32 / chroma_me=1 / trellis=2 / 8x8dct=1 / cqm=0 / deadzone=21,11 / fast_pskip=0 / chroma_qp_offset=-3 / threads=8 / lookahead_threads=2 / sliced_threads=0 / nr=0 / decimate=0 / interlaced=0 / bluray_compat=0 / constrained_intra=0 / bframes=12 / b_pyramid=2 / b_adapt=2 / b_bias=0 / direct=3 / weightb=1 / open_gop=0 / weightp=2 / keyint=250 / keyint_min=25 / scenecut=60 / intra_refresh=0 / rc_lookahead=60 / rc=2pass / mbtree=0 / bitrate=1734 / ratetol=1.0 / qcomp=0.60 / qpmin=0 / qpmax=69 / qpstep=4 / cplxblur=20.0 / qblur=0.5 / vbv_maxrate=50000 / vbv_bufsize=62500 / nal_hrd=none / filler=0 / ip_ratio=1.40 / pb_ratio=1.30 / aq=1:1.00
Default : Нет
Forced : Нет
Коэффициенты матрицы : BT.601
_STATISTICS_WRITING_APP : mkvmerge v7.1.0 ('Good Love') 64bit built on Jul 27 2014 13:06:55
_STATISTICS_WRITING_DATE_UTC : 2014-08-26 17:14:21
_STATISTICS_TAGS : BPS DURATION NUMBER_OF_FRAMES NUMBER_OF_BYTES
DURATION : 02:18:26.360000000
NUMBER_OF_FRAMES : 207659
NUMBER_OF_BYTES : 1800509441

Аудио #1
Идентификатор : 2
Формат : AC-3
Формат/Информация : Audio Coding 3
Расширение режима : CM (complete main)
Параметр Endianness формата : Big
Идентификатор кодека : A_AC3
Продолжительность : 2 ч. 18 м.
Вид битрейта : Постоянный
Битрейт : 192 Кбит/сек
Каналы : 1 канал
Расположение каналов : Front: C
Частота : 48,0 КГц
Битовая глубина : 16 бит
Метод сжатия : С потерями
Размер потока : 190 Мбайт (9%)
Язык : Russian
Default : Да
Forced : Нет

Аудио #2
Идентификатор : 3
Формат : AC-3
Формат/Информация : Audio Coding 3
Расширение режима : CM (complete main)
Параметр Endianness формата : Big
Идентификатор кодека : A_AC3
Продолжительность : 2 ч. 18 м.
Вид битрейта : Постоянный
Битрейт : 192 Кбит/сек
Каналы : 2 канала
Расположение каналов : Front: L R
Частота : 48,0 КГц
Битовая глубина : 16 бит
Метод сжатия : С потерями
Размер потока : 190 Мбайт (9%)
Язык : English
Default : Нет
Forced : Нет

Текст
Идентификатор : 4
Формат : VobSub
Режим смешивания : zlib
Идентификатор кодека : S_VOBSUB
Идентификатор кодека/Информация : The same subtitle format used on DVDs
Язык : English
Default : Нет
Forced : Нет

Меню
00:00:00.000 : en:Chapter 01
00:08:15.520 : en:Chapter 02
00:15:52.720 : en:Chapter 03
00:21:15.760 : en:Chapter 04
00:29:09.040 : en:Chapter 05
00:37:44.480 : en:Chapter 06
00:42:56.600 : en:Chapter 07
00:48:22.880 : en:Chapter 08
01:02:04.320 : en:Chapter 09
01:07:02.520 : en:Chapter 10
01:13:10.880 : en:Chapter 11
01:20:43.920 : en:Chapter 12
01:28:24.920 : en:Chapter 13
01:36:28.480 : en:Chapter 14
01:41:06.560 : en:Chapter 15
01:44:59.680 : en:Chapter 16
01:52:24.200 : en:Chapter 17
01:59:33.640 : en:Chapter 18
02:07:20.520 : en:Chapter 19
02:12:54.080 : en:Chapter 20
frame I:1127 Avg QP:17.12 size: 49531
frame P:47279 Avg QP:19.94 size: 18426
frame B:159253 Avg QP:21.82 size: 5485
Релиз от: Temperest



Скачать О.что.за.чудесная.война.Oh!.What.a.Lovely.War.(Ричард.Аттeнборо).[1969.военный.комедия.мюзикл.DVDRip-AVC].[MVO]+[Sub].torrent без регистрации
Золото ЗОЛОТАЯ РАЗДАЧА! СКАЧАННОЕ НЕ ЗАСЧИТЫВАЕТСЯ! Золото
Дата: Зарегистрирован   [ Тип: внутренний ] Как тут cкачать?
MAGNET ссылка
MAGNET ссылка


Скачать .torrent

11 KB

Статус: проверено DHT
Скачан: торрент - 137 раз, раздача полностью - 0 раз
Размер: 2,05 GB
Оценка:  - (Голосов: 0)
Поблагодарили: 2
Поделиться ссылкой на эту раздачу с друзьями:
В контактеFacebookОдноклассникиTwitterLivejournalМой МирLiveinternet
 

 
Показать сообщения:    


Вы не можете начинать темы
Вы не можете отвечать на сообщения
Вы не можете редактировать свои сообщения
Вы не можете удалять свои сообщения
Вы не можете голосовать в опросах
Вы не можете прикреплять файлы к сообщениям
Вы можете скачивать файлы