Loading...
Error

Скачать Ночь в музее / Night at the Museum (Шон Леви) [2006, фэнтези, боевик, комедия, приключения, семейный, BDRip-AVC] [Dub]x2+[Оригинал]+[Sub]x2 торрент без регистрации

 
Статистика раздачи
Размер:  2,95 GB   |    Скачан:  163 раза
Сидов:  1  [  0 KB/s  ]  
 
Автор Сообщение

Marsianka

[] 

Информация о фильме
Название: Ночь в музее
Оригинальное название: Night at the Museum
Год выхода: 2006
Жанр: фэнтези, боевик, комедия, приключения, семейный
Режиссер: Шон Леви
В ролях: Бен Стиллер, Карла Гуджино, Дик Ван Дайк, Микки Руни, Билл Коббс, Джейк Черри, Рики Джервэйс, Робин Уильямс, Ким Рэйвер, Патрик Галлахер, Патрик Галлахер, Рэми Малек, Пьерфранческо Фавино, Чарльз К. Мерфи, Стив Кугэн

О фильме:
Разведенный неудачник Ларри Дэйли больше всего на свете хочет быть примером для своего маленького сына. Но жизнь не ладиться, работы нет, а ребенок откровенно восторгается отчимом. Чтобы не потерять право на еженедельные свидания с сыном, Ларри должен найти работу. Ему предлагают место ночного сторожа в музее естественной истории, и он без колебаний соглашается - что может быть проще, чем здоровый сон посреди пыльных экспонатов! Но герой и представить не мог, в какую авантюру он ввязался. Оказывается, каждую ночь все "обитатели" музея - от пластиковых фигурок на диораме до огромного скелета тирранозавра - оживают. Удастся ли Ларри не угодить в челюсти ящера, не стать трофеем Атиллы и победить хитрую обезьяну-капуцина? Экранизация по произведению: Милан Тренк




Страна: США, Великобритания
Студия: 20th Century Fox
Продолжительность: 01:48:35
Перевод: Дублированный

Файл
Кодек: MPEG-4 AVC
Качество: BDRip-AVC
Видео: 2550 Кбит/с, 1024х552
Звук: Русский, украинский, английский (AC3, 6 ch, 448 Кбит/с)
Субтитры: Русские, английские
Рип от StarbirS
Релиз группы NovaLan

Аудио#1: Russian: 48 kHz, AC3, 3/2 (L,C,R,l,r) + LFE ch, ~448.00 kbps avg - Дублированный (BD CEE)
Аудио#2: Ukrainian: 48 kHz, AC3, 3/2 (L,C,R,l,r) + LFE ch, ~448.00 kbps avg - Дублированный (BD CEE)
Аудио#1: Englishn: 48 kHz, AC3, 3/2 (L,C,R,l,r) + LFE ch, ~448.00 kbps avg - Оригинал

Субтитры: Русские, английские

x264 [info]: frame I:1526 Avg QP:17.98 size: 78231
x264 [info]: frame P:34593 Avg QP:20.93 size: 25039
x264 [info]: frame B:120101 Avg QP:23.03 size: 9029
Формат : Matroska
Версия формата : Version 4 / Version 2
Размер файла : 2,95 Гбайт
Продолжительность : 1 ч. 48 м.
Общий поток : 3888 Кбит/сек
Название фильма : Night.at.the.Museum.2006.x264.D.BDRip.(AVC).Novalan
Дата кодирования : UTC 2014-08-26 05:40:22
Программа кодирования : mkvmerge v7.1.0 ('Good Love') 64bit built on Jul 27 2014 13:06:55
Библиотека кодирования : libebml v1.3.0 + libmatroska v1.4.1
DURATION : 01:41:32.251000000
NUMBER_OF_FRAMES : 1214
NUMBER_OF_BYTES : 44044
_STATISTICS_WRITING_APP : mkvmerge v7.1.0 ('Good Love') 64bit built on Jul 27 2014 13:06:55
_STATISTICS_WRITING_DATE_UTC : 2014-08-26 05:40:22
_STATISTICS_TAGS : BPS DURATION NUMBER_OF_FRAMES NUMBER_OF_BYTES

Видео
Идентификатор : 1
Формат : AVC
Формат/Информация : Advanced Video Codec
Профиль формата : High@L4.1
Параметр CABAC формата : Да
Параметр ReFrames формата : 9 кадров
Идентификатор кодека : V_MPEG4/ISO/AVC
Продолжительность : 1 ч. 48 м.
Битрейт : 2550 Кбит/сек
Ширина : 1024 пикселя
Высота : 552 пикселя
Соотношение сторон : 1,85:1
Режим частоты кадров : Постоянный
Частота кадров : 23,976 кадра/сек
Цветовое пространство : YUV
Субдискретизация насыщенности : 4:2:0
Битовая глубина : 8 бит
Тип развёртки : Прогрессивная
Бит/(Пиксели*Кадры) : 0.188
Размер потока : 1,87 Гбайт (63%)
Заголовок : Night.at.the.Museum.2006.x264.D.BDRip.(AVC).by.StarbirS
Библиотека кодирования : x264 core 133 r2334 a3ac64b
Настройки программы : cabac=1 / ref=9 / deblock=1:-2:-2 / analyse=0x3:0x133 / me=umh / subme=11 / psy=1 / psy_rd=1.00:0.00 / mixed_ref=1 / me_range=48 / chroma_me=1 / trellis=2 / 8x8dct=1 / cqm=0 / deadzone=21,11 / fast_pskip=0 / chroma_qp_offset=1 / threads=12 / lookahead_threads=2 / sliced_threads=0 / nr=0 / decimate=1 / interlaced=0 / bluray_compat=0 / constrained_intra=0 / bframes=8 / b_pyramid=2 / b_adapt=2 / b_bias=0 / direct=3 / weightb=1 / open_gop=1 / weightp=2 / keyint=250 / keyint_min=23 / scenecut=40 / intra_refresh=0 / rc=2pass / mbtree=0 / bitrate=2550 / ratetol=1.0 / qcomp=0.60 / qpmin=10 / qpmax=51 / qpstep=4 / cplxblur=20.0 / qblur=0.5 / ip_ratio=1.40 / pb_ratio=1.30 / aq=2:0.80
Язык : English
Default : Да
Forced : Нет
Основные цвета : BT.709
DURATION : 01:48:35.687000000
NUMBER_OF_FRAMES : 156220
NUMBER_OF_BYTES : 2069977202
_STATISTICS_WRITING_APP : mkvmerge v7.1.0 ('Good Love') 64bit built on Jul 27 2014 13:06:55
_STATISTICS_WRITING_DATE_UTC : 2014-08-26 05:40:22
_STATISTICS_TAGS : BPS DURATION NUMBER_OF_FRAMES NUMBER_OF_BYTES

Аудио #1
Идентификатор : 2
Формат : AC-3
Формат/Информация : Audio Coding 3
Расширение режима : CM (complete main)
Параметр Endianness формата : Big
Идентификатор кодека : A_AC3
Продолжительность : 1 ч. 48 м.
Вид битрейта : Постоянный
Битрейт : 448 Кбит/сек
Каналы : 6 каналов
Расположение каналов : Front: L C R, Side: L R, LFE
Частота : 48,0 КГц
Битовая глубина : 16 бит
Метод сжатия : С потерями
Размер потока : 348 Мбайт (12%)
Заголовок : Дублированный (BD CEE)
Язык : Russian
Default : Да
Forced : Нет

Аудио #2
Идентификатор : 3
Формат : AC-3
Формат/Информация : Audio Coding 3
Расширение режима : CM (complete main)
Параметр Endianness формата : Big
Идентификатор кодека : A_AC3
Продолжительность : 1 ч. 48 м.
Вид битрейта : Постоянный
Битрейт : 448 Кбит/сек
Каналы : 6 каналов
Расположение каналов : Front: L C R, Side: L R, LFE
Частота : 48,0 КГц
Битовая глубина : 16 бит
Метод сжатия : С потерями
Размер потока : 348 Мбайт (12%)
Заголовок : Дублированный (BD CEE)
Язык : Ukrainian
Default : Нет
Forced : Нет

Аудио #3
Идентификатор : 4
Формат : AC-3
Формат/Информация : Audio Coding 3
Расширение режима : CM (complete main)
Параметр Endianness формата : Big
Идентификатор кодека : A_AC3
Продолжительность : 1 ч. 48 м.
Вид битрейта : Постоянный
Битрейт : 448 Кбит/сек
Каналы : 6 каналов
Расположение каналов : Front: L C R, Side: L R, LFE
Частота : 48,0 КГц
Битовая глубина : 16 бит
Метод сжатия : С потерями
Размер потока : 348 Мбайт (12%)
Заголовок : Оригинал
Язык : English
Default : Нет
Forced : Нет

Текст #1
Идентификатор : 5
Формат : UTF-8
Идентификатор кодека : S_TEXT/UTF8
Идентификатор кодека/Информация : UTF-8 Plain Text
Язык : Russian
Default : Да
Forced : Нет

Текст #2
Идентификатор : 6
Формат : UTF-8
Идентификатор кодека : S_TEXT/UTF8
Идентификатор кодека/Информация : UTF-8 Plain Text
Язык : English
Default : Нет
Forced : Нет

Меню
00:00:00.000 : en:Chapter 01
00:03:10.815 : en:Chapter 02
00:08:35.139 : en:Chapter 03
00:14:18.899 : en:Chapter 04
00:17:18.495 : en:Chapter 05
00:24:18.832 : en:Chapter 06
00:31:54.746 : en:Chapter 07
00:35:57.154 : en:Chapter 08
00:41:28.402 : en:Chapter 09
00:47:53.245 : en:Chapter 10
00:50:51.298 : en:Chapter 11
00:55:57.395 : en:Chapter 12
00:57:21.938 : en:Chapter 13
01:02:33.791 : en:Chapter 14
01:06:48.963 : en:Chapter 15
01:13:15.474 : en:Chapter 16
01:18:00.759 : en:Chapter 17
01:21:45.483 : en:Chapter 18
01:24:44.662 : en:Chapter 19
01:27:21.653 : en:Chapter 20
01:31:31.652 : en:Chapter 21
01:34:04.847 : en:Chapter 22
01:38:54.136 : en:Chapter 23
01:44:04.696 : en:Chapter 24
Релиз от:



Скачать Ночь.в.музее.Night.at.the.Museum.(Шон.Леви).[2006.фэнтези.боевик.комедия.приключения.семейный.BDRip-AVC].[Dub]x2+[Оригинал]+[Sub]x2.torrent без регистрации
Золото ЗОЛОТАЯ РАЗДАЧА! СКАЧАННОЕ НЕ ЗАСЧИТЫВАЕТСЯ! Золото
Дата: Зарегистрирован   [ Тип: внутренний ] Как тут cкачать?
MAGNET ссылка
MAGNET ссылка


Скачать .torrent

15 KB

Статус: проверено DHT
Скачан: торрент - 163 раз, раздача полностью - 70 раз
Размер: 2,95 GB
Оценка:  - (Голосов: 0)
Поблагодарили: 4
Поделиться ссылкой на эту раздачу с друзьями:
В контактеFacebookОдноклассникиTwitterLivejournalМой МирLiveinternet
 

 
Показать сообщения:    


Вы не можете начинать темы
Вы не можете отвечать на сообщения
Вы не можете редактировать свои сообщения
Вы не можете удалять свои сообщения
Вы не можете голосовать в опросах
Вы не можете прикреплять файлы к сообщениям
Вы можете скачивать файлы