Loading...
Error

Скачать Доктор Кто / Doctor Who (сезон 08) (Бен Уитли) [2014, фантастика, комедия, WEB-DLRip] [1080p] [MVO (BaibaKo)]+[Eng] торрент без регистрации

 
Статистика раздачи
Размер:  23,82 GB   |    Скачан:  226 раз

Полного источника не было: 21 минута

 
Автор Сообщение

МихаНЕзатор

[] 



Год выхода: 2014
Страна: Великобритания
Жанр: Фантастика, комедия
Продолжительность: ~ 47 м
Перевод: Любительский многоголосый (закадровый) - BaibaKo

Режиссер: Бен Уитли, Пол Мёрфи, Даглас Маккиннон, Пол Уилмсхёрст, Шери Фолксон, Рэйчел Талалэй


В ролях: Питер Капальди, Дженна Коулман, Нив Макинтош, Кэтрин Стюарт, Дэн Старки и другие



Описание: Доктор Кто (Doctor Who) — британский научно-фантастический телесериал компании BBC о загадочном путешественнике во времени, известном как Доктор. Вместе со своими спутниками он путешествует во времени и пространстве как для спасения целых цивилизаций, так и для собственного удовольствия. «Доктор Кто» — самый продолжительный научно-фантастический сериал в мире, важная часть массовой культуры Великобритании и многих других стран.
Новый Доктор, Новые Монстры и Старые Враги... Новый Восьмой сезон приключений безумного старика в украденной им давным-давно Синей Будке начинается! Полноценная цветная версия с дописанными диалогами, доработанными спецэффектами и музыкой!







Качество: WEB-DLRip 1080p
Формат: mkv
Видео кодек: AVC
Аудио кодек: AC-3
Видео: AVC High@L4.0 4878 Кбит/сек 1920x1080 (1.778) 25.000 кадр/сек
Audio ru: AC-3 6 каналов 48,0 КГц 384 Кбит/сек
Audio en: AC-3 6 каналов 48,0 КГц 384 Кбит/сек



АНОНСЫ ПОПУЛЯРНЫХ РАЗДАЧ


11.11.2014 г. торрент обновлён, добавлена 12-я серия!
General
Unique ID : 228438053577143570587836443615094091669 (0xABDB919BB56AF93ABEC1AE6AE1DFAF95)
Complete name : D:Doctor.Who.S8Doctor.Who.s08e01.Deep.Breath.PROPER.HD1080p.WEB-DL.Rus.Eng.BaibaKo.tv.mkv
Format : Matroska
Format version : Version 4 / Version 2
File size : 3.06 GiB
Duration : 1h 16mn
Overall bit rate : 5 707 Kbps
Encoded date : UTC 2014-08-24 14:11:58
Writing application : mkvmerge v6.7.0 ('Back to the Ground') 64bit built on Jan 8 2014 15:10:52
Writing library : libebml v1.3.0 + libmatroska v1.4.1

Video
ID : 1
Format : AVC
Format/Info : Advanced Video Codec
Format profile : High@L4.0
Format settings, CABAC : Yes
Format settings, ReFrames : 4 frames
Codec ID : V_MPEG4/ISO/AVC
Duration : 1h 16mn
Bit rate : 4 826 Kbps
Width : 1 920 pixels
Height : 1 080 pixels
Display aspect ratio : 16:9
Frame rate mode : Constant
Frame rate : 25.000 fps
Color space : YUV
Chroma subsampling : 4:2:0
Bit depth : 8 bits
Scan type : Progressive
Bits/(Pixel*Frame) : 0.093
Stream size : 2.59 GiB (85%)
Language : English
Default : Yes
Forced : No
Color primaries : BT.709
Transfer characteristics : BT.709
Matrix coefficients : BT.709

Audio #1
ID : 2
Format : AC-3
Format/Info : Audio Coding 3
Mode extension : CM (complete main)
Format settings, Endianness : Big
Codec ID : A_AC3
Duration : 1h 16mn
Bit rate mode : Constant
Bit rate : 384 Kbps
Channel count : 6 channels
Channel positions : Front: L C R, Side: L R, LFE
Sampling rate : 48.0 KHz
Bit depth : 16 bits
Compression mode : Lossy
Stream size : 211 MiB (7%)
Language : Russian
Default : Yes
Forced : No

Audio #2
ID : 3
Format : AC-3
Format/Info : Audio Coding 3
Mode extension : CM (complete main)
Format settings, Endianness : Big
Codec ID : A_AC3
Duration : 1h 16mn
Bit rate mode : Constant
Bit rate : 384 Kbps
Channel count : 6 channels
Channel positions : Front: L C R, Side: L R, LFE
Sampling rate : 48.0 KHz
Bit depth : 16 bits
Compression mode : Lossy
Stream size : 211 MiB (7%)
Language : English
Default : No
Forced : No



Скачать Доктор.Кто.Doctor.Who.(сезон.08).(Бен.Уитли).[2014.фантастика.комедия.WEB-DLRip].[1080p].[MVO.(BaibaKo)]+[Eng].torrent без регистрации
Золото ЗОЛОТАЯ РАЗДАЧА! СКАЧАННОЕ НЕ ЗАСЧИТЫВАЕТСЯ! Золото
Дата: Зарегистрирован   [ Тип: внутренний ] Как тут cкачать?
MAGNET ссылка
MAGNET ссылка


Скачать .torrent

121 KB

Статус: проверено DHT
Скачан: торрент - 226 раз, раздача полностью - 77 раз
Размер: 23,82 GB
Оценка:  - (Голосов: 0)
Поблагодарили: 2
Поделиться ссылкой на эту раздачу с друзьями:
В контактеFacebookОдноклассникиTwitterLivejournalМой МирLiveinternet
 

 

МихаНЕзатор

[] 

Раздача обновлена
 
Показать сообщения:    


Вы не можете начинать темы
Вы не можете отвечать на сообщения
Вы не можете редактировать свои сообщения
Вы не можете удалять свои сообщения
Вы не можете голосовать в опросах
Вы не можете прикреплять файлы к сообщениям
Вы можете скачивать файлы