Loading...
Error

Скачать Робот Джокс / Роботы бойцы / Robot Jox (Стюарт Гордон / Stuart Gordon) [1990, Фантастика, DVDRip-AVC] 2x[AVO] (Иванов, Дохалов) + Eng торрент без регистрации

 
Статистика раздачи
Размер:  1,46 GB   |    Скачан:  106 раз
Сидов:  1  [  0 KB/s  ]  
 
Автор Сообщение

leon030982

[] 


Робот Джокс / Роботы бойцы / Robot Jox


Год выпуска: 1990
Страна: США
Жанр: Фантастика
Продолжительность: 01:24:43
Перевод #1: Авторский (одноголосый, закадровый) [Иванов]
Перевод #2: Авторский (одноголосый, закадровый) [Дохалов]
Cубтитры: нет
Оригинальная аудиодорожка: английский

Режиссер: Стюарт Гордон / Stuart Gordon

В ролях: Гэри Грэм, Энн-Мари Джонсон, Пол Косло, Роберт Сэмпсон, Дэниэл Кэймикона, Хилари Мэйсон

Описание: Спустя полвека после окончания ядерной войны человечество нашло способ более цивилизованного разрешения конфликтов. Представители новообразованных государств выставляют на бой гигантских роботов, управляемых пилотами, сидящими внутри, – Роботов Джокс. Ахиллес (Гэри Грэм), выходец с Аляски, является последней надеждой американцев. Их основных соперников, русских, представляет многоопытный пилот по имени Александр (Пол Косло), на чьём счету несколько побед над его соотечественниками.



Качество видео: DVDRip-AVC
Формат: MKV
Видео кодек: h.264
Аудио кодек: AC3
Видео: h.264, размер кадра: 720x464 @ 853x464, битрейт: 1885 Kbps, Bits/(Pixel*Frame) : 0.235
Аудио 1: AC3 2.0, 48 KHz, битрейт аудио: 192 кб/с - Иванов
Аудио 2: AC3 2.0, 48 KHz, битрейт аудио: 192 кб/с - Дохалов
Аудио 3: AC3 2.0, 48 KHz, битрейт аудио: 192 кб/с - Английский
Video
ID : 1
Format : AVC
Format/Info : Advanced Video Codec
Format profile : High@L3.1
Format settings, CABAC : Yes
Format settings, ReFrames : 8 frames
Codec ID : V_MPEG4/ISO/AVC
Duration : 1h 24mn
Bit rate : 1 885 Kbps
Width : 720 pixels
Height : 464 pixels
Display aspect ratio : 16:9
Original display aspect ratio : 16:9
Frame rate : 23.976 fps
Color space : YUV
Chroma subsampling : 4:2:0
Bit depth : 8 bits
Scan type : Progressive
Bits/(Pixel*Frame) : 0.235
Stream size : 1.09 GiB (75%)
Title : Robot Jox
Writing library : x264 core 119 r2106 07efeb4
Encoding settings : cabac=1 / ref=8 / deblock=1:-2:-2 / analyse=0x3:0x133 / me=umh / subme=11 / psy=1 / psy_rd=1.00:0.20 / mixed_ref=1 / me_range=32 / chroma_me=1 / trellis=2 / 8x8dct=1 / cqm=0 / deadzone=21,11 / fast_pskip=1 / chroma_qp_offset=-3 / threads=6 / sliced_threads=0 / nr=0 / decimate=1 / interlaced=0 / bluray_compat=0 / constrained_intra=0 / bframes=4 / b_pyramid=2 / b_adapt=2 / b_bias=0 / direct=3 / weightb=1 / open_gop=0 / weightp=2 / keyint=250 / keyint_min=23 / scenecut=40 / intra_refresh=0 / rc_lookahead=60 / rc=2pass / mbtree=1 / bitrate=1885 / ratetol=1.0 / qcomp=0.60 / qpmin=0 / qpmax=69 / qpstep=4 / cplxblur=20.0 / qblur=0.5 / ip_ratio=1.40 / aq=1:1.00
Language : English
Audio #1
ID : 2
Format : AC-3
Format/Info : Audio Coding 3
Mode extension : CM (complete main)
Codec ID : A_AC3
Duration : 1h 24mn
Bit rate mode : Constant
Bit rate : 192 Kbps
Channel(s) : 2 channels
Channel positions : Front: L R
Sampling rate : 48.0 KHz
Bit depth : 16 bits
Compression mode : Lossy
Stream size : 116 MiB (8%)
Title : Иванов AC3 2.0 192kbps
Language : Russian
Audio #2
ID : 3
Format : AC-3
Format/Info : Audio Coding 3
Mode extension : CM (complete main)
Codec ID : A_AC3
Duration : 1h 24mn
Bit rate mode : Constant
Bit rate : 192 Kbps
Channel(s) : 2 channels
Channel positions : Front: L R
Sampling rate : 48.0 KHz
Bit depth : 16 bits
Compression mode : Lossy
Stream size : 116 MiB (8%)
Title : Дохалов AC3 2.0 192kbps
Language : Russian
Audio #3
ID : 4
Format : AC-3
Format/Info : Audio Coding 3
Format profile : Dolby Digital
Mode extension : CM (complete main)
Codec ID : A_AC3
Duration : 1h 24mn
Bit rate mode : Constant
Bit rate : 192 Kbps
Channel(s) : 2 channels
Channel positions : Front: L R
Sampling rate : 48.0 KHz
Bit depth : 16 bits
Compression mode : Lossy
Stream size : 116 MiB (8%)
Title : AC3 2.0 192kbps
Language : English



Скачать Робот.Джокс.Роботы.бойцы.Robot.Jox.(Стюарт.Гордон.Stuart.Gordon).[1990.Фантастика.DVDRip-AVC].2x[AVO].(Иванов.Дохалов).+.Eng.torrent без регистрации
Золото ЗОЛОТАЯ РАЗДАЧА! СКАЧАННОЕ НЕ ЗАСЧИТЫВАЕТСЯ! Золото
Дата: Зарегистрирован   [ Тип: внутренний ] Как тут cкачать?
MAGNET ссылка
MAGNET ссылка


Скачать .torrent

15 KB

Статус: проверено DHT
Скачан: торрент - 106 раз, раздача полностью - 2 раз
Размер: 1,46 GB
Оценка:  5 (Голосов: 1)
Поблагодарили: 2
Поделиться ссылкой на эту раздачу с друзьями:
В контактеFacebookОдноклассникиTwitterLivejournalМой МирLiveinternet
 

 
Показать сообщения:    


Вы не можете начинать темы
Вы не можете отвечать на сообщения
Вы не можете редактировать свои сообщения
Вы не можете удалять свои сообщения
Вы не можете голосовать в опросах
Вы не можете прикреплять файлы к сообщениям
Вы можете скачивать файлы