Loading...
Error

Скачать Манхэттен / Manhattan (сезон 01) (Томас Шламми, Пэрис Барклай, Билл Д’Элиа) [2014, драма, WEB-DL] [1080p] [MVO (BaibaKo)]+[Eng]+[Sub (Rus, Eng)] торрент без регистрации

 
Статистика раздачи
Размер:  24,55 GB   |    Скачан:  251 раз

Полного источника не было: 21 минута

 
Автор Сообщение

МихаНЕзатор

[] 

Информация о фильме
Название: Манхэттен
Оригинальное название: Manhattan
Год выхода: 2014
Жанр: драма
Режиссер: Томас Шламми, Пэрис Барклай, Билл Д’Элиа


В ролях: Алексия Фаст, Джон Бенжамин Хикки, Кристофер Денэм, Дэниэл Стерн, Майкл Чернус, Оливия Уильямс, Эшли Цукерман, Альма Сиснерос



О фильме: Действие драматического сериала начинается во время Второй мировой войны, в начале 1940-х годов прошлого века. Американское правительство создает особую программу по разработке ядерного оружия — «Проект „Манхэттен“». К работе привлекаются самые опытные ученые разных специальностей, которых вербуют и переправляют в пустыню Нью-Мексико, в Лос-Аламос. Возглавляет сложную и опасную работу лаборатории профессор Фрэнк Уинтер (Джон Бенджамин Хикки). Участникам проекта каждый день приходится идти на сделку со своей совестью, выбирая между моральными ценностями и долгом, скрывая правду о своей работе от самых близких людей... Сериал «Манхэттен» основан на реальных событиях.



Релиз от:



Выпущено: США
Студия: Lions Gate Television, Shoe Money Productions, Skydance Productions, Tribune Studios
Продолжительность: 3 x ~ 00:55:00
Перевод: Профессиональный многоголосый



Файл
Кодек: MPEG-4 AVC
Качество: WEB-DL 1080p
Видео: AVC High@L4.0 4802 Кбит/сек 1912x1072 (1.784) 23.976 кадр/сек
Звук:
Аудио #1: Русский (AC3, 6 ch, 384 Кбит/с) / любительский (многоголосый, закадровый) (BaibaKo)
Аудио #2: Английский (AC3, 6 ch, 384 Кбит/с)
Субтитры: Русские, английские


АНОНСЫ ПОПУЛЯРНЫХ РАЗДАЧ


03.02.2015 г. торент обновлён, добавлена 13-я серия!

Общее
Уникальный идентификатор : 197331893084023159480772135034853484991 (0x9474BD7CEA72D7AD8963302D1EF369BF)
Полное имя : D:В планахManhjetten.(1.sezon).2014.x264.WEB-DL.1080p_MediaClubManhjetten.(1.sezon.01.seriya.iz.13).2014.x264.WEB-DL.1080p_MediaClub.mkv
Формат : Matroska
Версия формата : Version 4 / Version 2
Размер файла : 2,27 Гбайт
Продолжительность : 56 м.
Общий поток : 5714 Кбит/сек
Дата кодирования : UTC 2014-08-04 17:28:12
Программа кодирования : mkvmerge v6.9.1 ('Blue Panther') 64bit built on Apr 18 2014 18:23:38
Библиотека кодирования : libebml v1.3.0 + libmatroska v1.4.1
Обложка : Yes / Yes / Yes / Yes

Видео
Идентификатор : 1
Формат : AVC
Формат/Информация : Advanced Video Codec
Профиль формата : High@L4.0
Параметр CABAC формата : Да
Параметр ReFrames формата : 4 кадра
Идентификатор кодека : V_MPEG4/ISO/AVC
Продолжительность : 56 м.
Битрейт : 4833 Кбит/сек
Ширина : 1912 пикселей
Высота : 1072 пикселя
Соотношение сторон : 16:9
Режим частоты кадров : Постоянный
Частота кадров : 23,976 кадра/сек
Цветовое пространство : YUV
Субдискретизация насыщенности : 4:2:0
Битовая глубина : 8 бит
Тип развёртки : Прогрессивная
Бит/(Пиксели*Кадры) : 0.098
Размер потока : 1,92 Гбайт (85%)
Язык : English
Default : Да
Forced : Нет
Основные цвета : BT.709
Характеристики трансфера : BT.709
Коэффициенты матрицы : BT.709

Аудио #1
Идентификатор : 2
Формат : AC-3
Формат/Информация : Audio Coding 3
Расширение режима : CM (complete main)
Параметр Endianness формата : Big
Идентификатор кодека : A_AC3
Продолжительность : 56 м.
Вид битрейта : Постоянный
Битрейт : 384 Кбит/сек
Каналы : 6 каналов
Расположение каналов : Front: L C R, Side: L R, LFE
Частота : 48,0 КГц
Битовая глубина : 16 бит
Метод сжатия : С потерями
Размер потока : 156 Мбайт (7%)
Язык : Russian
Default : Да
Forced : Нет

Аудио #2
Идентификатор : 3
Формат : AC-3
Формат/Информация : Audio Coding 3
Расширение режима : CM (complete main)
Параметр Endianness формата : Big
Идентификатор кодека : A_AC3
Продолжительность : 56 м.
Вид битрейта : Постоянный
Битрейт : 384 Кбит/сек
Каналы : 6 каналов
Расположение каналов : Front: L C R, Side: L R, LFE
Частота : 48,0 КГц
Битовая глубина : 16 бит
Метод сжатия : С потерями
Размер потока : 156 Мбайт (7%)
Язык : English
Default : Нет
Forced : Нет

Текст #1
Идентификатор : 4
Формат : UTF-8
Идентификатор кодека : S_TEXT/UTF8
Идентификатор кодека/Информация : UTF-8 Plain Text
Язык : Russian
Default : Нет
Forced : Нет

Текст #2
Идентификатор : 5
Формат : UTF-8
Идентификатор кодека : S_TEXT/UTF8
Идентификатор кодека/Информация : UTF-8 Plain Text
Язык : English
Default : Нет
Forced : Нет



Скачать Манхэттен.Manhattan.(сезон.01).(Томас.Шламми.Пэрис.Барклай.Билл.Д’Элиа).[2014.драма.WEB-DL].[1080p].[MVO.(BaibaKo)]+[Eng]+[Sub.(Rus.Eng)].torrent без регистрации
Золото ЗОЛОТАЯ РАЗДАЧА! СКАЧАННОЕ НЕ ЗАСЧИТЫВАЕТСЯ! Золото
Дата: Зарегистрирован   [ Тип: внутренний ] Как тут cкачать?
MAGNET ссылка
MAGNET ссылка


Скачать .torrent

63 KB

Статус: проверено DHT
Скачан: торрент - 251 раз, раздача полностью - 1 раз
Размер: 24,55 GB
Оценка:  - (Голосов: 0)
Поблагодарили: 2
Поделиться ссылкой на эту раздачу с друзьями:
В контактеFacebookОдноклассникиTwitterLivejournalМой МирLiveinternet
 

 

МихаНЕзатор

[] 

Раздача обновлена.
 
Показать сообщения:    


Вы не можете начинать темы
Вы не можете отвечать на сообщения
Вы не можете редактировать свои сообщения
Вы не можете удалять свои сообщения
Вы не можете голосовать в опросах
Вы не можете прикреплять файлы к сообщениям
Вы можете скачивать файлы