Loading...
Error

Скачать Вики / Vicki (Гарри Хорнер / Harry Horner) [1953, нуар, детектив, триллер, DVDRip] [VO] (Алексей Яковлев) + [Original] Eng торрент без регистрации

 
Статистика раздачи
Размер:  776 MB   |    Скачан:  119 раз

Полного источника не было: 24 минуты

 
Автор Сообщение

leon030982

[] 

Вики / Vicki


Год выпуска: 1953
Страна: США
Жанр: нуар, детектив, триллер
Продолжительность: 01:25:20
Перевод: Одноголосый (закадровый) - [Алексей Яковлев]
Cубтитры: нет
Оригинальная аудиодорожка: английская

Режиссер: Гарри Хорнер / Harry Horner

В ролях: Джинн Крейн, Джин Питерс, Эллиот Рид, Ричард Бун, Макс Шоуолтер, Александр Д’Арси, Карл Бетц, Аарон Спеллинг, Роберт Адлер,
Рамсей Амес

Описание: Супермодель Викки Линн, чье лицо повсюду, была убита, и полицейский Эд Корнелл прерывает свой отпуск, чтобы лично расследовать дело. Вики начинала свою карьеру с амбициозной официантки и добралась до огромных заголовков во многом благодаря Стиву Кристоферу. Теперь Корнелл собирается осудить Кристофера, но во многом его решение напоминает личную месть. Окажется ли Стив пойманным, как крыса, в ловушку?
По мотивам романа Стива Фишера (Steve Fisher) "I Wake Up Screaming".

СЭМПЛ

Качество: DVDRip
Формат: AVI
Видео кодек: XviD
Аудио кодек: MP3
Видео: 512x384 (1.33:1), 23.976 fps, XviD build 73 ~1005 kbps avg, 0.21 bit/pixel
Аудио 1: 48 kHz, MPEG Layer 3, 2 ch, ~128.00 kbps avg [Алексей Яковлев]
Аудио 2: 48 kHz, MPEG Layer 3, 2 ch, ~128.00 kbps avg [ENG]

Цитата:

За исходный DVD - Магда
Работа со звуком и реавторинг DVD - AlekceyR76
Перевод и озвучивание фильма - Алексей Яковлев
А также Большое Спасибо всем, кто принял участие в появлении озвучки к этому фильму:
Магда, jasenka, елена 22, sveta_pula, lafajet, yanaelisa, Wrobel, HippopotamusIV, duum100, e-ball,
surzhoks, atomic dragonfly, voostorg, mangust1, Ugo927, mumzik69, Arias
AVI-файл:
General
Complete name : ... \Vicki 1953 700MB\Vicki 1953.avi
Format : AVI
Format/Info : Audio Video Interleave
File size : 698 MiB
Duration : 1h 25mn
Overall bit rate : 1 143 Kbps
Writing application : VirtualDubMod 1.5.10.3 | www.virtualdub-fr.org || (build 2550/release)
Writing library : VirtualDubMod build 2550/release
Video
ID : 0
Format : MPEG-4 Visual
Format profile : Advanced Simple@L5
Format settings, BVOP : 2
Format settings, QPel : No
Format settings, GMC : No warppoints
Format settings, Matrix : Default (H.263)
Codec ID : DX50
Codec ID/Hint : DivX 5
Duration : 1h 25mn
Bit rate : 1 006 Kbps
Width : 512 pixels
Height : 384 pixels
Display aspect ratio : 4:3
Frame rate : 23.976 fps
Color space : YUV
Chroma subsampling : 4:2:0
Bit depth : 8 bits
Scan type : Progressive
Compression mode : Lossy
Bits/(Pixel*Frame) : 0.213
Stream size : 614 MiB (88%)
Writing library : XviD 73
Audio
ID : 1
Format : MPEG Audio
Format version : Version 1
Format profile : Layer 3
Codec ID : 55
Codec ID/Hint : MP3
Duration : 1h 25mn
Bit rate mode : Constant
Bit rate : 128 Kbps
Channel(s) : 2 channels
Sampling rate : 48.0 KHz
Compression mode : Lossy
Stream size : 78.1 MiB (11%)
Alignment : Aligned on interleaves
Interleave, duration : 42 ms (1.00 video frame)
Interleave, preload duration : 504 ms
Writing library : LAME3.99r
Encoding settings : -m s -V 4 -q 0 -lowpass 17 -b 128
английская оригинальная дорожка, лежит отдельно:
General
Complete name : ... \Vicki 1953 700MB\Vicki 1953.ENG.mp3
Format : MPEG Audio
File size : 78.1 MiB
Duration : 1h 25mn
Overall bit rate mode : Constant
Overall bit rate : 128 Kbps
Writing library : LAME3.99r
Audio
Format : MPEG Audio
Format version : Version 1
Format profile : Layer 3
Duration : 1h 25mn
Bit rate mode : Constant
Bit rate : 128 Kbps
Channel(s) : 2 channels
Sampling rate : 48.0 KHz
Compression mode : Lossy
Stream size : 78.1 MiB (100%)
Writing library : LAME3.99r
Encoding settings : -m s -V 4 -q 0 -lowpass 17 -b 128



Скачать Вики.Vicki.(Гарри.Хорнер.Harry.Horner).[1953.нуар.детектив.триллер.DVDRip].[VO].(Алексей.Яковлев).+.[Original].Eng.torrent без регистрации
Золото ЗОЛОТАЯ РАЗДАЧА! СКАЧАННОЕ НЕ ЗАСЧИТЫВАЕТСЯ! Золото
Дата: Зарегистрирован   [ Тип: внутренний ] Как тут cкачать?
MAGNET ссылка
MAGNET ссылка


Скачать .torrent

16 KB

Статус: проверено DHT
Скачан: торрент - 119 раз, раздача полностью - 2 раз
Размер: 776 MB
Оценка:  5 (Голосов: 1)
Поблагодарили: 2
Поделиться ссылкой на эту раздачу с друзьями:
В контактеFacebookОдноклассникиTwitterLivejournalМой МирLiveinternet
 

 
Показать сообщения:    


Вы не можете начинать темы
Вы не можете отвечать на сообщения
Вы не можете редактировать свои сообщения
Вы не можете удалять свои сообщения
Вы не можете голосовать в опросах
Вы не можете прикреплять файлы к сообщениям
Вы можете скачивать файлы