Loading...
Error

Скачать От «А» до «Я» / A to Z (Сезон 01, серии 01-10 из 13) (Майкл Патрик Джэнн) [2014, комедия, WEBRip / WEB-DLRip] [MVO] (AlexFilm) торрент без регистрации

 
Статистика раздачи
Размер:  2,5 GB   |    Скачан:  136 раз
Сидов:  1  [  0 KB/s  ]  
 
Автор Сообщение

leon030982

[] 


От «А» до «Я» / От A до Z / A to Z


Год выпуска: 2014
Страна: США
Жанр: комедия
Продолжительность: 10 x ~00:26:13
Перевод: Профессиональный (многоголосый, закадровый) (AlexFilm)
Субтитры: нет

Режиссёр: Майкл Патрик Джэнн

В ролях: Бен Фельдман, Кристин Милиоти, Генри Жебровский, Ленора Кричлоу, Кристина Кирк, Хонг Чау, Кэти Сагал, Парвеш Шина, Хантер Пэйтон

Описание: Сериал рассказывает о жизни Эндрю, работника сайта знакомств, мечтающего о встрече с девушкой своих грёз, и Зельды, серьёзного адвоката, которую растила мать-хиппи и которой свойственны бунтарские поступки. Зельда знакомится с Эндрю, пытаясь разобраться с ошибкой при подборе пары на сайте, и между двумя людьми вспыхивает роман. Сериал является хроникой их отношений от A до Z.

Релиз:
Перевод: Константин Кривоногов
Монтаж и сведение звука: Сергей Мартынов
Роли озвучивали: Евгения Тихонова, Сергей Пономарёв, Михаил Суслов


Качество: WEBRip (1-я серия), WEB-DLRip
Формат: AVI
Видео кодек: XviD
Аудио кодек: MP3
Видео: 720x400 (1.80:1), 23.976 fps, XviD ~1340 kbps avg, 0.19 bit/pixel
Аудио Rus: 48 kHz, MPEG Layer 3, 2 ch, ~128.00 kbps avg
Аудио Eng: 48 kHz, MPEG Layer 3, 2 ch, ~128.00 kbps avg
Format : AVI
Format/Info : Audio Video Interleave
File size : 301 MiB
Duration : 26mn 13s
Overall bit rate : 1 602 Kbps
Movie name : A to Z 1x01 "A" is for Acquaintances @ AlexFilm
Writing application : VirtualDubMod 1.5.10.2 (build 2542/release)
Video
ID : 0
Format : MPEG-4 Visual
Format profile : Advanced Simple@L5
Format settings, BVOP : 1
Format settings, QPel : No
Format settings, GMC : No warppoints
Format settings, Matrix : Default (MPEG)
Codec ID : XVID
Codec ID/Hint : XviD
Duration : 26mn 13s
Bit rate : 1 332 Kbps
Width : 720 pixels
Height : 400 pixels
Display aspect ratio : 16:9
Frame rate : 23.976 fps
Color space : YUV
Chroma subsampling : 4:2:0
Bit depth : 8 bits
Scan type : Progressive
Compression mode : Lossy
Bits/(Pixel*Frame) : 0.193
Stream size : 250 MiB (83%)
Writing library : XviD 1.2.1 (UTC 2008-12-04)
Audio #1
ID : 1
Format : MPEG Audio
Format version : Version 1
Format profile : Layer 3
Mode : Joint stereo
Mode extension : MS Stereo
Codec ID : 55
Codec ID/Hint : MP3
Duration : 26mn 13s
Bit rate mode : Constant
Bit rate : 128 Kbps
Channel(s) : 2 channels
Sampling rate : 48.0 KHz
Compression mode : Lossy
Stream size : 24.0 MiB (8%)
Alignment : Aligned on interleaves
Interleave, duration : 42 ms (1.00 video frame)
Interleave, preload duration : 504 ms
Title : Russian (AlexFilm)
Audio #2
ID : 2
Format : MPEG Audio
Format version : Version 1
Format profile : Layer 3
Mode : Joint stereo
Codec ID : 55
Codec ID/Hint : MP3
Duration : 26mn 13s
Bit rate mode : Constant
Bit rate : 128 Kbps
Channel(s) : 2 channels
Sampling rate : 48.0 KHz
Compression mode : Lossy
Stream size : 24.0 MiB (8%)
Alignment : Aligned on interleaves
Interleave, duration : 42 ms (1.00 video frame)
Interleave, preload duration : 504 ms
Title : English
Внимание! Раздача ведётся путём добавления новых серий; при каждом добавлении создаётся новый торрент. Чтобы начать докачку новой серии, пользователям необходимо сделать следующее:
(1) остановить скачивание,
(2) удалить старый торрент у себя из клиента (старые серии удалять не надо),
(3) скачать новый торрент и запустить его у себя в клиенте вместо старого, при этом указать клиенту путь в старую папку куда и должно происходить скачивание новых серий.
Ваш клиент при этом должен произвести хеширование (проверку) старой папки (если не производит сам - помогите ему сделать это), и будет докачивать только те серии которых у вас ещё нет. Старые серии при этом не удаляются, а продолжают раздаваться!
Eсли вы уже удалили старые серии, то предотвратить повторную закачку старых серий можно, отжав галочку в соответствующих местах при запуске нового торрента. По возможности, желательно не удалять старые серии как можно дольше, чтобы релизёр не столько продолжал раздавать старые серии, а смог сконцентрироваться на новых.



Скачать От.«А».до.«Я».A.to.Z.(Сезон.01.серии.01-10.из.13).(Майкл.Патрик.Джэнн).[2014.комедия.WEBRip.WEB-DLRip].[MVO].(AlexFilm).torrent без регистрации
Золото ЗОЛОТАЯ РАЗДАЧА! СКАЧАННОЕ НЕ ЗАСЧИТЫВАЕТСЯ! Золото
Дата: Зарегистрирован   [ Тип: внутренний ] Как тут cкачать?
MAGNET ссылка
MAGNET ссылка


Скачать .torrent

14 KB

Статус: проверено DHT
Скачан: торрент - 136 раз, раздача полностью - 1 раз
Размер: 2,5 GB
Оценка:  5 (Голосов: 1)
Поблагодарили: 2
Поделиться ссылкой на эту раздачу с друзьями:
В контактеFacebookОдноклассникиTwitterLivejournalМой МирLiveinternet
 

 

leon030982

[] 

+ 2-я серия
 

leon030982

[] 

+ 3-я серия
 

leon030982

[] 

+ 4-я серия
 

leon030982

[] 

+5-я серия
 

leon030982

[] 

раздача обновлена
 

leon030982

[] 

+10-я серия
 
Показать сообщения:    


Вы не можете начинать темы
Вы не можете отвечать на сообщения
Вы не можете редактировать свои сообщения
Вы не можете удалять свои сообщения
Вы не можете голосовать в опросах
Вы не можете прикреплять файлы к сообщениям
Вы можете скачивать файлы