Loading...
Error

Скачать Подпольная Империя / Boardwalk Empire (Сезон 01-05, серия 01-55 из 55) [2010-2014 г., драма, криминальный, BDRip] [720p] [AVO] (Ю. Сербин) торрент без регистрации

 
Статистика раздачи
Размер:  163,64 GB   |    Скачан:  509 раз
Сидов:  1  [  0 KB/s  ]  
 
Автор Сообщение

leon030982

[] 


Подпольная Империя | Boardwalk Empire
Год выпуска: 2010-2014
Страна: США | HBO
Жанр: драма, криминальный
Продолжительность: 55 x ~ 00:55:00, 1 x 01:12:21
Перевод: Авторский (одноголосый, закадровый) |Ю. Сербин|
Субтитры: нет

Режиссер: Тимоти Ван Паттен, Аллен Култер
В ролях: Стив Бушеми, Майкл Питт, Келли Макдоналд, Майкл Шеннон, Ши Уигхэм, Алекса Палладино, Майкл Стулбарг, Стивен Грэм, Винсент Пьяцца, Джек Хьюстон и др.

Описание: 1920 год. Через несколько часов Атлантик-Сити — столица развлечений и порока, как и вся Америка, вступит в эпоху «Сухого закона». Енох «Наки» Томпсон, днем — городской казначей, а ночью — хитроумный гангстер со связями на самом «верху», решает воспользоваться ситуацией и получить баснословные прибыли на подпольной торговле алкоголем. Однако не он один жаждет обогатиться на новом промысле…



Качество: BDRip 720p
Формат: AVC
Видео кодек: h.264
Аудио кодек: AC3
Видео: 1280 x 720, 16:9; 23.976 fps; 6514-7441 kbps; ~ 0.30 bit/pixel
Аудио: AC3, 48.0 KHz, 6 ch, 384 Kbps |Ю. Сербин|
General
Unique ID : 252881246066723748596294359734011874130 (0xBE3F280AF8457881BD8C321B8944CB52)
Complete name : H:DownloadsBoardwalk.Empire.RUS.BDRip.720p.h264.AC3.-GYNSeason_01Boardwalk.Empire.s01e01.mkv
Format : Matroska
Format version : Version 4 / Version 2
File size : 3.47 GiB
Duration : 1h 12mn
Overall bit rate mode : Variable
Overall bit rate : 6 867 Kbps
Movie name : Boardwalk Empire (2010) Season 1 Episode 1: Boardwalk Empire / Подпольная империя
Encoded date : UTC 2014-11-30 09:13:06
Writing application : mkvmerge v6.9.1 ('Blue Panther') 32bit built on Apr 18 2014 18:15:44
Writing library : libebml v1.3.0 + libmatroska v1.4.1

Video
ID : 1
Format : AVC
Format/Info : Advanced Video Codec
Format profile : High@L4.1
Format settings, CABAC : Yes
Format settings, ReFrames : 6 frames
Codec ID : V_MPEG4/ISO/AVC
Duration : 1h 12mn
Bit rate mode : Variable
Bit rate : 6 346 Kbps
Maximum bit rate : 6 514 Kbps
Width : 1 280 pixels
Height : 720 pixels
Display aspect ratio : 16:9
Frame rate : 23.976 fps
Color space : YUV
Chroma subsampling : 4:2:0
Bit depth : 8 bits
Scan type : Progressive
Bits/(Pixel*Frame) : 0.287
Stream size : 3.21 GiB (92%)
Title : Encoded by GYN
Default : Yes
Forced : No

Audio
ID : 2
Format : AC-3
Format/Info : Audio Coding 3
Mode extension : CM (complete main)
Codec ID : A_AC3
Duration : 1h 12mn
Bit rate mode : Constant
Bit rate : 384 Kbps
Channel(s) : 6 channels
Channel positions : Front: L C R, Side: L R, LFE
Sampling rate : 48.0 KHz
Bit depth : 16 bits
Compression mode : Lossy
Stream size : 199 MiB (6%)
Title : Ю.Сербин
Language : Russian
Default : Yes
Forced : No

Menu
00:00:00.000 : en:Chapter 01
00:01:37.097 : en:Chapter 02
00:08:21.876 : en:Chapter 03
00:18:15.344 : en:Chapter 04
00:34:20.933 : en:Chapter 05
00:46:04.178 : en:Chapter 06
00:59:44.038 : en:Chapter 07
01:11:00.172 : en:Chapter 08



Скачать Подпольная.Империя.Boardwalk.Empire.(Сезон.01-05.серия.01-55.из.55).[2010-2014.г.драма.криминальный.BDRip].[720p].[AVO].(Ю.Сербин).torrent без регистрации
Золото ЗОЛОТАЯ РАЗДАЧА! СКАЧАННОЕ НЕ ЗАСЧИТЫВАЕТСЯ! Золото
Дата: Зарегистрирован   [ Тип: внутренний ] Как тут cкачать?
MAGNET ссылка
MAGNET ссылка


Скачать .torrent

823 KB

Статус: проверено DHT
Скачан: торрент - 509 раз, раздача полностью - 1 раз
Размер: 163,64 GB
Оценка:  5 (Голосов: 1)
Поблагодарили: 3
Поделиться ссылкой на эту раздачу с друзьями:
В контактеFacebookОдноклассникиTwitterLivejournalМой МирLiveinternet
 

 

leon030982

[] 

серия 01, 03-04, 06-07
 

leon030982

[] 

Перезалито на BDRip 720p
 
Показать сообщения:    


Вы не можете начинать темы
Вы не можете отвечать на сообщения
Вы не можете редактировать свои сообщения
Вы не можете удалять свои сообщения
Вы не можете голосовать в опросах
Вы не можете прикреплять файлы к сообщениям
Вы можете скачивать файлы