Loading...
Error

Скачать Кровавая баня в Доме смерти / Bloodbath at the House of Death (Рэй Камерон) [1984 г., ужасы, комедия, DVDRip] [AVO (Максим Логинофф)] торрент без регистрации

 
Статистика раздачи
Размер:  1,46 GB   |    Скачан:  127 раз

Полного источника не было: 24 минуты

 
Автор Сообщение

durik

[] 

Кровавая баня в Доме смерти / Bloodbath at the House of Death

Название: Кровавая баня в Доме смерти
Оригинальное название: Bloodbath at the House of Death
Год выхода: 1984
Жанр: ужасы, комедия
Режиссер: Рэй Камерон
В ролях: Кенни Эверетт, Памела Стивенсон, Винсент Прайс, Гарет Хант, Дон Уоррингтон, Джон Форчун, Шейла Стифл, Джон Стивен Хилл, Клео Рокос, Грэм Старк

О фильме:
12 августа 1975 года члены религиозной секты дъяволопоклонников жестоко убили 18 ни в чем не повинных людей.
С тех пор минуло восемь лет, и в дом, где произошли те ужасные события, приезжает группа ученых, чтобы разобраться в чертовщине, которая там происходит. Но единственное, что они там найдут, так это свою смерть…




Страна: Великобритания
Студия: Wildwood Productions
Продолжительность: 01:28:06
Перевод: Авторский (одноголосый) - Максим Логинофф


Кодек: XviD
Качество: DVDRip
Видео: 704x384, 1728 kbps, 25 fps, 0,256 Bits/(Pixel*Frame)
Звук:
AC3, 48 kHz, 6 ch, 448 kHz - русский
AC3, 48 kHz, 2 ch, 192 kHz - english
Субтитры: Нет


Релиз от:

Автор рипа: Bathory
General
Complete name : D:Bloodbath.1980.DVDRip_by_Bathory.avi
Format : AVI
Format/Info : Audio Video Interleave
File size : 1.46 GiB
Duration : 1h 28mn
Overall bit rate : 2 379 Kbps

Video
ID : 0
Format : MPEG-4 Visual
Format profile : Advanced Simple@L5
Format settings, BVOP : 1
Format settings, QPel : No
Format settings, GMC : No warppoints
Format settings, Matrix : Default (MPEG)
Codec ID : XVID
Codec ID/Hint : XviD
Duration : 1h 28mn
Bit rate : 1 728 Kbps
Width : 704 pixels
Height : 384 pixels
Display aspect ratio : 1.85:1
Frame rate : 25.000 fps
Color space : YUV
Chroma subsampling : 4:2:0
Bit depth : 8 bits
Scan type : Progressive
Compression mode : Lossy
Bits/(Pixel*Frame) : 0.256
Stream size : 1.06 GiB (73%)
Writing library : XviD 1.2.1 (UTC 2008-12-04)

Audio #1
ID : 1
Format : AC-3
Format/Info : Audio Coding 3
Mode extension : CM (complete main)
Format settings, Endianness : Big
Codec ID : 2000
Duration : 1h 28mn
Bit rate mode : Constant
Bit rate : 448 Kbps
Channel(s) : 6 channels
Channel positions : Front: L C R, Side: L R, LFE
Sampling rate : 48.0 KHz
Bit depth : 16 bits
Compression mode : Lossy
Stream size : 282 MiB (19%)
Alignment : Aligned on interleaves
Interleave, duration : 64 ms (1.60 video frames)
Interleave, preload duration : 192 ms
Title : VTS_01_1 T81 3_2ch 448Kbps DELAY 0ms

Audio #2
ID : 2
Format : AC-3
Format/Info : Audio Coding 3
Mode extension : CM (complete main)
Format settings, Endianness : Big
Codec ID : 2000
Duration : 1h 28mn
Bit rate mode : Constant
Bit rate : 192 Kbps
Channel(s) : 2 channels
Channel positions : Front: L R
Sampling rate : 48.0 KHz
Bit depth : 16 bits
Compression mode : Lossy
Stream size : 121 MiB (8%)
Alignment : Aligned on interleaves
Interleave, duration : 64 ms (1.60 video frames)
Interleave, preload duration : 192 ms
Title : VTS_01_1 T80 2_0ch 192Kbps DELAY 0ms



Скачать Кровавая.баня.в.Доме.смерти.Bloodbath.at.the.House.of.Death.(Рэй.Камерон).[1984.г.ужасы.комедия.DVDRip].[AVO.(Максим.Логинофф)].torrent без регистрации
Золото ЗОЛОТАЯ РАЗДАЧА! СКАЧАННОЕ НЕ ЗАСЧИТЫВАЕТСЯ! Золото
Дата: Зарегистрирован   [ Тип: внутренний ] Как тут cкачать?
MAGNET ссылка
MAGNET ссылка


Скачать .torrent

15 KB

Статус: проверено DHT
Скачан: торрент - 127 раз, раздача полностью - 12 раз
Размер: 1,46 GB
Оценка:  5 (Голосов: 1)
Поблагодарили: 3
Поделиться ссылкой на эту раздачу с друзьями:
В контактеFacebookОдноклассникиTwitterLivejournalМой МирLiveinternet
 

 
Показать сообщения:    


Вы не можете начинать темы
Вы не можете отвечать на сообщения
Вы не можете редактировать свои сообщения
Вы не можете удалять свои сообщения
Вы не можете голосовать в опросах
Вы не можете прикреплять файлы к сообщениям
Вы можете скачивать файлы