Loading...
Error

Скачать Сыны Анархии / Sons of Anarchy (Сезон 07, серии 01-11 из 13) (Пэрис Барклай, Гвинет Хордер-Пэйтон) [2014, Драма, криминал, WEB-DL] [720p] [MVO] (LostFilm) + Original торрент без регистрации

 
Статистика раздачи
Размер:  22,9 GB   |    Скачан:  16063 раза
Сидов:  1  [  0 KB/s  ]  
 
Автор Сообщение

leon030982

[] 



Сыны Анархии / Sons of Anarchy


Год выпуска: 2014
Страна: США
Жанр: Драма, криминал
Продолжительность: 01:15:00
Перевод: Профессиональный (многоголосый, закадровый) [LostFilm]

Режиссёр: Пэрис Барклай, Гвинет Хордер-Пэйтон / Paris Barclay, Gwyneth Horder-Payton
В ролях: Чарли Ханнэм, Кэти Сагал, Марк Бун Джуниор, Мэгги Сифф, Томми Флэнаган, Рон Перлман, Ким Коутс, Джонни Льюис, Тео Росси, Райан Херст и др.
Описание:
Сериал рассказывает о клубе байкеров, которые пытаются защитить свой городок от наркотиков и влияния из вне, хотя сами грешат торговлей оружием. Молодой лидер клуба не слишком уверен в том, что выбрал правильный путь, и пытается что-то изменить, к неудовольствию своих мамы и отчима.
Доп. информация:
Перевод: Петр Чайников
Русская звуковая дорожка синхронизирована без пересжатия с помощью delaycut

Качество: WEB-DL 720p
Контейнер: MKV
Видео: AVC, 1280*720 (1.778), 23,976 кадра/сек, 3804 Кбит/сек, Бит/Пиксели 0,172
Аудио rus: AC3, 48 Hz, 2 ch, 384 ch
Аудио eng: AC3, 48 Hz, 6 ch, 384 ch
Субтитры: softsub (SRT) английскийСписок серий
01. Чёрный вдовец /Black Widower
MediaInfo
Общее
Уникальный идентификатор : 232848502782810037535225903240602457145 (0xAF2CFD8AF4242D0F9B72E3BE82D41439)
Полное имя : C:\Films\Sons.of.Anarchy.S07.LostFilm\Sons.of.Anarchy.S07E01.720p.WEB-DL.rus.LostFilm.mkv
Формат : Matroska
Версия формата : Version 4 / Version 2
Размер файла : 2,46 Гбайт
Продолжительность : 1 ч. 15 м.
Общий поток : 4665 Кбит/сек
Дата кодирования : UTC 2014-09-12 04:53:30
Программа кодирования : mkvmerge v7.1.0 ('Good Love') 32bit built on Jul 27 2014 12:59:18
Библиотека кодирования : libebml v1.3.0 + libmatroska v1.4.1
_STATISTICS_WRITING_APP : mkvmerge v7.1.0 ('Good Love') 32bit built on Jul 27 2014 12:59:18
_STATISTICS_WRITING_DATE_UTC : 2014-09-12 04:53:30
_STATISTICS_TAGS : BPS DURATION NUMBER_OF_FRAMES NUMBER_OF_BYTES
DURATION : 01:14:30.065000000
NUMBER_OF_FRAMES : 1569
NUMBER_OF_BYTES : 33396
Видео
Идентификатор : 1
Формат : AVC
Формат/Информация : Advanced Video Codec
Профиль формата : High@L3.1
Параметр CABAC формата : Нет
Параметр ReFrames формата : 2 кадра
Идентификатор кодека : V_MPEG4/ISO/AVC
Продолжительность : 1 ч. 15 м.
Битрейт : 3804 Кбит/сек
Ширина : 1280 пикселей
Высота : 720 пикселей
Соотношение сторон : 16:9
Режим частоты кадров : Постоянный
Частота кадров : 23,976 кадра/сек
Цветовое пространство : YUV
Субдискретизация насыщенности : 4:2:0
Битовая глубина : 8 бит
Тип развёртки : Прогрессивная
Бит/(Пиксели*Кадры) : 0.172
Размер потока : 2,00 Гбайт (82%)
Язык : English
Default : Да
Forced : Нет
Основные цвета : BT.709
Характеристики трансфера : BT.709
Коэффициенты матрицы : BT.709
Аудио #1
Идентификатор : 2
Формат : AC-3
Формат/Информация : Audio Coding 3
Расширение режима : CM (complete main)
Параметр Endianness формата : Big
Идентификатор кодека : A_AC3
Продолжительность : 1 ч. 15 м.
Вид битрейта : Постоянный
Битрейт : 384 Кбит/сек
Каналы : 2 канала
Расположение каналов : Front: L R
Частота : 48,0 КГц
Битовая глубина : 16 бит
Метод сжатия : С потерями
Размер потока : 207 Мбайт (8%)
Язык : Russian
Default : Да
Forced : Нет
Аудио #2
Идентификатор : 3
Формат : AC-3
Формат/Информация : Audio Coding 3
Расширение режима : CM (complete main)
Параметр Endianness формата : Big
Идентификатор кодека : A_AC3
Продолжительность : 1 ч. 15 м.
Вид битрейта : Постоянный
Битрейт : 384 Кбит/сек
Каналы : 6 каналов
Расположение каналов : Front: L C R, Side: L R, LFE
Частота : 48,0 КГц
Битовая глубина : 16 бит
Метод сжатия : С потерями
Задержка видео : 16 мс.
Размер потока : 207 Мбайт (8%)
Язык : English
Default : Нет
Forced : Нет
Текст
Идентификатор : 4
Формат : UTF-8
Идентификатор кодека : S_TEXT/UTF8
Идентификатор кодека/Информация : UTF-8 Plain Text
Заголовок : CC
Язык : English
Default : Нет
Forced : Нет

Внимание! Раздача ведётся путём добавления новых серий; при каждом добавлении создётся новый торрент. Чтобы начать докачку новой серии, пользователям необходимо сделать следующее:
Остановить скачивание.
Удалить старый торрент у себя из клиента (старые серии удалять не надо).
Скачать новый торрент и запустить его у себя в клиенте вместо старого, при этом указать клиенту путь в старую папку куда и должно происходить скачивание новых серий.
Ваш клиент при этом должен произвести хеширование (проверку) старой папки (если не производит сам - помогите ему сделать это), и будет докачивать только те серии которых у вас ещё нет. Старые серии при этом не удаляются, а продолжают раздаваться!
Eсли вы уже удалили старые серии, то предотвратить повторную закачку старых серий можно, отжав галочку в соответсвующих местах при запуске нового торрента. По возможности, желательно не удалять старые серии как можно дольше чтобы релизёр не столько продолжал раздавать старые серии, а смог сконцентрироваться на новых.



Скачать Сыны.Анархии.Sons.of.Anarchy.(Сезон.07.серии.01-11.из.13).(Пэрис.Барклай.Гвинет.Хордер-Пэйтон).[2014.Драма.криминал.WEB-DL].[720p].[MVO].(LostFilm).+.Original.torrent без регистрации
Золото ЗОЛОТАЯ РАЗДАЧА! СКАЧАННОЕ НЕ ЗАСЧИТЫВАЕТСЯ! Золото
Дата: Зарегистрирован   [ Тип: внутренний ] Как тут cкачать?
MAGNET ссылка
MAGNET ссылка


Скачать .torrent

59 KB

Статус: проверено DHT
Скачан: торрент - 16063 раз, раздача полностью - 3 раз
Размер: 22,9 GB
Оценка:  - (Голосов: 0)
Поблагодарили: 2
Поделиться ссылкой на эту раздачу с друзьями:
В контактеFacebookОдноклассникиTwitterLivejournalМой МирLiveinternet
 

 

leon030982

[] 

2-я серия
 

leon030982

[] 

обновлено
 

leon030982

[] 

4-5-я серии
 

leon030982

[] 

обновлено
 

leon030982

[] 

раздача обновлена
 

leon030982

[] 

обновлено
 

leon030982

[] 

обновлено
 
Показать сообщения:    


Вы не можете начинать темы
Вы не можете отвечать на сообщения
Вы не можете редактировать свои сообщения
Вы не можете удалять свои сообщения
Вы не можете голосовать в опросах
Вы не можете прикреплять файлы к сообщениям
Вы можете скачивать файлы