Loading...
Error

/ Haven ( 05, 01-17 26) ( , , .. ) [2014-2015, , , , HDTVRip-AVC] [Sub Rus] (Coffee Translate) + [Sub] Eng

 
5,07 GB   |    :  1897

: 19

 

leon030982

[] 

/ Haven


: 2014-2015
: ,
: , ,
: ~00:43:00
: [Notabenoid *Coffee Translate*]
: ,
:

: , , ..

: , , , , , , , , - .

: "The Colorado Kid" (" "). , . - , , , . , , .





: HDTVRip-AVC
: MP4
: x264
: AAC
: 720x404, 23.976 fps, x264 ~1000 kbps avg, 0.147 bit/pixel
: 48 kHz, AAC LC, 2 ch, ~128.00 kbps avg

17 . !

:

: Grenada, rose_madder, luybava_shmel CHAOS
: GooFFi

:

General
Complete name : M:\\Haven.S05.HDTV.x264\Haven.S05E01.HDTV.x264.mp4
Format : MPEG-4
Format profile : Base Media
Codec ID : isom
File size : 360 MiB
Duration : 42mn 49s
Overall bit rate mode : Variable
Overall bit rate : 1 176 Kbps
Encoded date : UTC 2014-09-12 01:18:25
Tagged date : UTC 2014-09-12 01:18:25
Video
ID : 2
Format : AVC
Format/Info : Advanced Video Codec
Format profile : High@L3.1
Format settings, CABAC : Yes
Format settings, ReFrames : 5 frames
Codec ID : avc1
Codec ID/Info : Advanced Video Coding
Duration : 42mn 49s
Source duration : 42mn 49s
Bit rate : 1 026 Kbps
Maximum bit rate : 6 393 Kbps
Width : 720 pixels
Height : 404 pixels
Display aspect ratio : 16:9
Frame rate mode : Constant
Frame rate : 23.976 fps
Color space : YUV
Chroma subsampling : 4:2:0
Bit depth : 8 bits
Scan type : Progressive
Bits/(Pixel*Frame) : 0.147
Stream size : 314 MiB (87%)
Source stream size : 314 MiB (87%)
Writing library : x264 core 142 r2479 dd79a61
Encoding settings : cabac=1 / ref=5 / deblock=1:0:0 / analyse=0x3:0x113 / me=umh / subme=8 / psy=1 / psy_rd=1.00:0.00 / mixed_ref=1 / me_range=16 / chroma_me=1 / trellis=1 / 8x8dct=1 / cqm=0 / deadzone=21,11 / fast_pskip=1 / chroma_qp_offset=-2 / threads=18 / lookahead_threads=3 / sliced_threads=0 / nr=0 / decimate=1 / interlaced=0 / bluray_compat=0 / constrained_intra=0 / bframes=3 / b_pyramid=2 / b_adapt=2 / b_bias=0 / direct=3 / weightb=1 / open_gop=0 / weightp=2 / keyint=250 / keyint_min=23 / scenecut=40 / intra_refresh=0 / rc_lookahead=50 / rc=crf / mbtree=1 / crf=19.0 / qcomp=0.60 / qpmin=0 / qpmax=69 / qpstep=4 / ip_ratio=1.40 / aq=1:1.00
Encoded date : UTC 2014-09-12 01:04:08
Tagged date : UTC 2014-09-12 01:18:27
Matrix coefficients : BT.709
Audio
ID : 1
Format : AAC
Format/Info : Advanced Audio Codec
Format profile : LC
Codec ID : 40
Duration : 42mn 49s
Bit rate mode : Variable
Bit rate : 144 Kbps
Maximum bit rate : 176 Kbps
Channel(s) : 2 channels
Channel positions : Front: L R
Sampling rate : 48.0 KHz
Compression mode : Lossy
Stream size : 44.7 MiB (12%)
Encoded date : UTC 2014-09-12 01:18:25
Tagged date : UTC 2014-09-12 01:18:27
! ; . , :
(1) ,
(2) - ( ),
(3) - , , .
() ( - ), , . , !
E , , . , , .




..Haven.(.05..01-17..26).(......).[2014-2015....HDTVRip-AVC].[Sub.Rus].(Coffee.Translate).+.[Sub].Eng.torrent
  ! ! 
:   [ : ] c?
MAGNET
MAGNET


.torrent

16 KB

: DHT
: - 1897 , - 0
: 5,07 GB
5 (: 1)
: 2
:
 FacebookTwitterLivejournal Liveinternet
 

 

leon030982

[] 

az
 

leon030982

[] 

:

2-
 

leon030982

[] 

:

3-
 

leon030982

[] 

 

leon030982

[] 

 

leon030982

[] 

:

9-
 

leon030982

[] 

ab
 

leon030982

[] 

:

14-15 . !P.S. Coffee Translate
 
: