Loading...
Error

Скачать Хон Гиль Дон / Hong kil dong (Кил Ин Ким) [1986 г., фэнтези, боевик, приключения, DVDRip-HEVC (Upscale 720p)] [Расширенная версия] [DUB] торрент без регистрации

 
Статистика раздачи
Размер:  2,88 GB   |    Скачан:  208 раз
Сидов:  1  [  0 KB/s  ]  
 
Автор Сообщение

leon030982

[] 

Хон Гиль Дон / Hong kil dong / Hon Gil Don


Год выпуска: 1986
Страна: Северная Корея
Жанр: Фэнтези, Боевик
Продолжительность: 01:44:32
Перевод: Профессиональный (дублированный) [к/с М. Горького]
Cубтитры: русские (на места без перевода)
Режиссер: Ким Кил Ин / Kim Kil In
В ролях: Чанг Сон Хуи, Йонг Хо Ри, Гвон Ри, Рийнюн Ри
Описание: Народный заступник Хон Гиль Дон в одиночку, в совершенстве владея приемами таэквандо и ловко действуя мечом, справляется со всей нечистью, что портила жизнь простым людям еще в XVII веке.
Хон Гиль Дон совершал подвиги в борьбе с иноземными варварами, противился миру зла и угнетения, защищал бедных от жестокости и сумасбродства местных правителей, взывал к всеобщей справедливости. Но как не боролся - всё равно остались гнёт и бесправие. И с обидой люди покидали родные земли и отправлялись в неведомые края в поисках такого мира - где нет ни богатых ни бедных, где все живут счастливо и дружно.


СЭМПЛ

Качество: DVDRip-HEVC 720p
Формат: MKV
Видео кодек: x265
Аудио кодек: AC-3
Видео: HEVC at 3718 Кбит/сек, 936 x 720 (1.300) at 25.000 fps
Аудио: AC-3 at 224 Кбит/сек, 2 каналов, 48,0 КГц

Код:

Внимание!
Рип в фомате HEVC, в настоящее время не поддерживается аппаратными проигрывателями.
Для корректного воспроизведения может потребоваться обновление ПО.

Что такое HEVC

H.265/HEVC (High Efficiency Video Coding) - это новый стандарт кодирования видео.
Стандарт H.265/HEVC является логическим продолжением стандарта H.264/AVC (Advanced Video Coding), и харакетризуется более эффективными алгоритмами сжатия, а также поддержкой высокого разрешения вплоть до 8K UHD (8192x4320).
Первая версия стандарта H.265 была опубликована в начале 2013 года.

Как смотреть HEVC

Любителям решения из коробки - установить последнюю версию на выбор:
Media Player Classic - Black Edition (MPC-BE)
VLC media player
Daum Pot Player
GOM Media Player

Любителям WMP и других плееров, использующих по умолчанию для воспроизведения системные кодеки+сплитеры установить последнюю версию LAV Filters;
любой другой кодек-пак, в котором присутствует LAV Filters, например K-Lite Codec Pack версии 10.1.0 и выше.

Любимые плееры, не использующии по умолчанию для воспроизведения системные кодеки+сплитеры, нужно перенастроить на использование оных.

Цитата:

Замечательный фильм, издание которого мы никогда не увидим на носителях высокой чёткости.
В связи с этим была предпринята попытка реанимации/реставрации данного шедевра для комфортного просмотра на устройствах с HD разрешением.
Для объективного сравнения скринов, картинка ДВД-диска была масштабирована к HD разрешению при помощи хард.ресайзера от nVidia (практически то, что видит зритель при просмотре ДВД на HD девайсах).

Расширенная версия фильма. Нет перевода: 7:55-8:16, 21:13-22:31, 23:26-23:44, 31:58-32:05, 58:41-1:01:26, 1:04:01-1:04:18, 1:04:46-1:05:11,
1:06:08-1:06:52, 1:11:40-1:14:18, 1:23:10-1:23:40, 1:28:10-1:28:40, 1:32:08-1:33:01, 1:34:38-1:34:53
На места без перевода - русские сабы. Перевод и создание субтитров: Lem / smit009 - спасибо.

Код:

Общее
Уникальный идентификатор                 : 186635217288743939296646574597890327588 (0x8C68A2A74DE6A1F7A4FDD5DE738B4424)
Полное имя                               : Хон Гиль Дон [Hong kil dong] (1986) DVDRip-HEVC 720p.mkv
Формат                                   : Matroska
Версия формата                           : Version 4 / Version 2
Размер файла                             : 2,88 Гбайт
Продолжительность                        : 1 ч. 44 м.
Общий поток                              : 3946 Кбит/сек
Дата кодирования                         : UTC 2014-09-13 09:56:49
Программа кодирования                    : mkvmerge v7.1.0 ('Good Love') 32bit built on Jul 27 2014 12:59:18
Библиотека кодирования                   : libebml v1.3.0 + libmatroska v1.4.1

Видео
Идентификатор                            : 1
Формат                                   : HEVC
Формат/Информация                        : High Efficiency Video Coding
Идентификатор кодека                     : V_MPEGH/ISO/HEVC
Продолжительность                        : 1 ч. 44 м.
Битрейт                                  : 3643 Кбит/сек
Ширина                                   : 936 пикселей
Высота                                   : 720 пикселей
Соотношение сторон                       : 4:3
Режим частоты кадров                     : Постоянный
Частота кадров                           : 25,000 кадров/сек
Цветовое пространство                    : YUV
Субдискретизация насыщенности            : 4:2:0
Битовая глубина                          : 8 бит
Бит/(Пиксели*Кадры)                      : 0.216
Размер потока                            : 2,66 Гбайт (92%)
Библиотека кодирования                   : x265 1.3+139-033299d2bd00921f__Compiling by snayper [x265.ru]
Настройки программы                      : wpp / ctu=64 / tu-intra-depth=4 / tu-inter-depth=4 / me=2 / subme=7 / merange=64 / no-rect / no-amp / max-merge=5 / no-early-skip / no-fast-cbf / rdpenalty=0 / no-tskip / no-tskip-fast / strong-intra-smoothing / no-lossless / no-cu-lossless / no-constrained-intra / no-fast-intra / no-open-gop / interlace=0 / keyint=750 / min-keyint=1 / scenecut=0 / rc-lookahead=40 / bframes=8 / bframe-bias=0 / b-adapt=2 / ref=16 / weightp / no-weightb / aq-mode=2 / aq-strength=1.00 / cbqpoffs=0 / crqpoffs=0 / rd=4 / psy-rd=1.40 / psy-rdoq=6.00 / signhide / lft / sao / sao-lcu-bounds=0 / sao-lcu-opt=1 / b-pyramid / cutree / rc=crf / crf=18.0 / qcomp=0.60 / qpmin=0 / qpmax=51 / qpstep=4 / ipratio=1.40 / pbratio=1.30
Default                                  : Да
Forced                                   : Нет

Аудио
Идентификатор                            : 2
Формат                                   : AC-3
Формат/Информация                        : Audio Coding 3
Расширение режима                        : CM (complete main)
Параметр Endianness формата              : Big
Идентификатор кодека                     : A_AC3
Продолжительность                        : 1 ч. 44 м.
Вид битрейта                             : Постоянный
Битрейт                                  : 224 Кбит/сек
Каналы                                   : 2 канала
Расположение каналов                     : Front: L R
Частота                                  : 48,0 КГц
Битовая глубина                          : 16 бит
Метод сжатия                             : С потерями
Размер потока                            : 167 Мбайт (6%)
Заголовок                                : Dub
Язык                                     : Russian
Default                                  : Да
Forced                                   : Нет

Текст
Идентификатор                            : 3
Формат                                   : UTF-8
Идентификатор кодека                     : S_TEXT/UTF8
Идентификатор кодека/Информация          : UTF-8 Plain Text
Заголовок                                : на места без перевода
Язык                                     : Russian
Default                                  : Да
Forced                                   : Да

Меню
00:00:00.000                             : :01
00:13:14.040                             : :02
00:26:11.720                             : :03
00:39:16.480                             : :04
00:52:18.320                             : :05
01:05:22.440                             : :06
01:18:34.760                             : :07
01:31:31.160                             : :08
DVDRip-HEVC----------vs----------DVD5 Disc

--
--
--



Скачать Хон.Гиль.Дон.Hong.kil.dong.(Кил.Ин.Ким).[1986.г.фэнтези.боевик.приключения.DVDRip-HEVC.(Upscale.720p)].[Расширенная.версия].[DUB].torrent без регистрации
Золото ЗОЛОТАЯ РАЗДАЧА! СКАЧАННОЕ НЕ ЗАСЧИТЫВАЕТСЯ! Золото
Дата: Зарегистрирован   [ Тип: внутренний ] Как тут cкачать?
MAGNET ссылка
MAGNET ссылка


Скачать .torrent

15 KB

Статус: проверено DHT
Скачан: торрент - 208 раз, раздача полностью - 36 раз
Размер: 2,88 GB
Оценка:  5 (Голосов: 2)
Поблагодарили: 4
Поделиться ссылкой на эту раздачу с друзьями:
В контактеFacebookОдноклассникиTwitterLivejournalМой МирLiveinternet
 

 

sindzi

[] 

СПАСИБО БОЛЬШОЕ
 

leon030982

[] 

sindzi писал(а):

СПАСИБО БОЛЬШОЕ
всегда пожалуйста ab
 
Показать сообщения:    


Вы не можете начинать темы
Вы не можете отвечать на сообщения
Вы не можете редактировать свои сообщения
Вы не можете удалять свои сообщения
Вы не можете голосовать в опросах
Вы не можете прикреплять файлы к сообщениям
Вы можете скачивать файлы