Loading...
Error

Скачать Три мушкетера / Les trois mousquetaires (Бернар Бордери) [1961, мелодрама, приключения, история, DVDRip-AVC] [Dub]+2x[MVO]+[Fre]+[Deu] торрент без регистрации

 
Статистика раздачи
Размер:  4,26 GB   |    Скачан:  172 раза
Сидов:  1  [  0 KB/s  ]  
 
Автор Сообщение

МихаНЕзатор

[] 

Страна: Франция, Италия
Жанр: мелодрама, приключения, история
Год выпуска: 1961
Продолжительность: 01:39:25 + 01:34:56
Перевод: Профессиональный (полное дублирование) + Профессиональный (многоголосый, закадровый)( Студия "Инис" по заказу "Союз-Видео" ) + Профессиональный (многоголосый, закадровый)( ТВЦ ) + Французкий + Немецкий
Режиссер: Бернар Бордери / Bernard Borderie
В ролях: Жерар Баррэ (D'Artagnan), Жорж Декриер (Athos), Бернар Воринже (Porthos), Жак Тожа (Aramis), Милен Демонжо (Milady), Жан Карме (Planchet), Ги Делорм (Rochefort), Робер Берри (Bonacieux), Анн Тоньетти (Ketty), Ги Трежан (Louis XIII), Анри Нассье (M. de Tréville), Жак Бертье (Buckingham)
Дублёры: Артем Карапетян (D'Artagnan), Борис Кордунов (Athos), Роберт Чумак (Porthos), Олег Голубицкий (Aramis), Антонина Кончакова (Milady), Дмитрий Масанов (Planchet), Михаил Глузский (Rochefort), Яков Беленький (Bonacieux), Юрий Саранцев (Louis XIII), Константин Тыртов (M. de Tréville), Владимир Дружников (Buckingham), Нина Никитина (Anne d'Autriche)

Качество: DVDRip ( DVD9 [Custom] | rjhlb777 )
Контейнер: MKV
Первая серия: Подвески королевы

Описание: Итак, молодой гасконец Д`Артаньян прибывает в столицу на дрянной лошаденке непонятного цвета. Казалось, что может ждать деревенщину в Париже, кроме неприятностей?
А вот что: служба в мушкетерском полку, любовь прелестнейшей из придворных дам, знакомство с королевой Анной Австрийской и приключения, приключения, приключения...

Видео: AVC, 720x436 @ 1024x436 (2.35:1), 2150 kbps, 25 fps, 0,274 bpp
Аудио №1: русский / AC3 / 2.0 / 48 kHz / 192 kbps
Аудио №2: русский / AC3 / 2.0 / 48 kHz / 192 kbps
Аудио №3: русский / AC3 / 2.0 / 48 kHz / 192 kbps
Аудио №4: французский / AC3 / 2.0 / 48 kHz / 192 kbps
Аудио №5: немецкий / AC3 / 2.0 / 48 kHz / 192 kbps
Навигация по главам: есть

Format : Matroska
Format version : Version 2
File size : 2.16 GiB
Duration : 1h 39mn
Overall bit rate : 3 113 Kbps
Movie name : = Три мушкетера / Les trois mousquetaires DVDRip by SC Kosmos ( 1 серия ) =
Encoded date : UTC 2014-09-10 21:07:47
Writing application : mkvmerge v3.3.0 ('Language') gebaut am Mar 24 2010 14:59:24
Writing library : libebml v0.8.0 + libmatroska v0.9.0

Video
ID : 1
Format : AVC
Format/Info : Advanced Video Codec
Format profile : High@L4.1
Format settings, CABAC : Yes
Format settings, ReFrames : 12 frames
Codec ID : V_MPEG4/ISO/AVC
Duration : 1h 39mn
Bit rate : 2 150 Kbps
Width : 720 pixels
Height : 436 pixels
Display aspect ratio : 2.35:1
Frame rate : 25.000 fps
Color space : YUV
Chroma subsampling : 4:2:0
Bit depth : 8 bits
Scan type : Progressive
Bits/(Pixel*Frame) : 0.274
Stream size : 1.45 GiB (67%)
Title : Три мушкетера / Les trois mousquetaires DVDRip by SC Kosmos ( 1 серия )
Writing library : x264 core 142 r2453 ea0ca51
Encoding settings : cabac=1 / ref=12 / deblock=1:-2:-2 / analyse=0x3:0x113 / me=umh / subme=11 / psy=1 / psy_rd=1.00:0.00 / mixed_ref=1 / me_range=48 / chroma_me=1 / trellis=2 / 8x8dct=1 / cqm=0 / deadzone=21,11 / fast_pskip=0 / chroma_qp_offset=-2 / threads=12 / lookahead_threads=1 / sliced_threads=0 / nr=0 / decimate=1 / interlaced=0 / bluray_compat=0 / constrained_intra=0 / bframes=14 / b_pyramid=2 / b_adapt=1 / b_bias=0 / direct=3 / weightb=1 / open_gop=0 / weightp=2 / keyint=250 / keyint_min=25 / scenecut=40 / intra_refresh=0 / rc_lookahead=40 / rc=2pass / mbtree=0 / bitrate=2150 / ratetol=1.0 / qcomp=0.60 / qpmin=0 / qpmax=69 / qpstep=4 / cplxblur=20.0 / qblur=0.5 / vbv_maxrate=62500 / vbv_bufsize=78125 / nal_hrd=none / filler=0 / ip_ratio=1.40 / pb_ratio=1.30 / aq=1:1.00
Language : French
Default : No
Forced : No

Audio #1
ID : 2
Format : AC-3
Format/Info : Audio Coding 3
Mode extension : CM (complete main)
Codec ID : A_AC3
Duration : 1h 39mn
Bit rate mode : Constant
Bit rate : 192 Kbps
Channel(s) : 2 channels
Channel positions : Front: L R
Sampling rate : 48.0 KHz
Bit depth : 16 bits
Compression mode : Lossy
Stream size : 137 MiB (6%)
Title : Дубляж
Language : Russian
Default : Yes
Forced : No

Audio #2
ID : 3
Format : AC-3
Format/Info : Audio Coding 3
Mode extension : CM (complete main)
Codec ID : A_AC3
Duration : 1h 39mn
Bit rate mode : Constant
Bit rate : 192 Kbps
Channel(s) : 2 channels
Channel positions : Front: L R
Sampling rate : 48.0 KHz
Bit depth : 16 bits
Compression mode : Lossy
Stream size : 137 MiB (6%)
Title : MVO ( Студия "Инис" по заказу "Союз-Видео" )
Language : Russian
Default : No
Forced : No

Audio #3
ID : 4
Format : AC-3
Format/Info : Audio Coding 3
Mode extension : CM (complete main)
Codec ID : A_AC3
Duration : 1h 39mn
Bit rate mode : Constant
Bit rate : 192 Kbps
Channel(s) : 2 channels
Channel positions : Front: L R
Sampling rate : 48.0 KHz
Bit depth : 16 bits
Compression mode : Lossy
Stream size : 137 MiB (6%)
Title : MVO ( ТВЦ )
Language : Russian
Default : No
Forced : No

Audio #4
ID : 5
Format : AC-3
Format/Info : Audio Coding 3
Mode extension : CM (complete main)
Codec ID : A_AC3
Duration : 1h 39mn
Bit rate mode : Constant
Bit rate : 192 Kbps
Channel(s) : 2 channels
Channel positions : Front: L R
Sampling rate : 48.0 KHz
Bit depth : 16 bits
Compression mode : Lossy
Stream size : 137 MiB (6%)
Language : French
Default : No
Forced : No

Audio #5
ID : 6
Format : AC-3
Format/Info : Audio Coding 3
Mode extension : CM (complete main)
Codec ID : A_AC3
Duration : 1h 39mn
Bit rate mode : Constant
Bit rate : 192 Kbps
Channel(s) : 2 channels
Channel positions : Front: L R
Sampling rate : 48.0 KHz
Bit depth : 16 bits
Compression mode : Lossy
Stream size : 137 MiB (6%)
Language : German
Default : No
Forced : No

Menu
00:00:00.000 : en:Chapter 01
00:06:57.560 : en:Chapter 02
00:12:31.800 : en:Chapter 03
00:20:30.320 : en:Chapter 04
00:30:45.400 : en:Chapter 05
00:40:54.960 : en:Chapter 06
00:50:03.360 : en:Chapter 07
00:59:27.600 : en:Chapter 08
01:08:15.240 : en:Chapter 09
01:15:51.160 : en:Chapter 10
01:22:36.560 : en:Chapter 11
01:30:39.000 : en:Chapter 12
01:39:25.000 : en:Chapter 13


Вторая серия: Месть миледи

Описание: Вот уж правда, счастье и несчастье идут рука об рука. Вспомните, как повезло Д`Артаньяну: его полюбила прелестная госпожа Бонасье, сама королева вознаградила его за отвагу, а главные забияки мушкетерского полка назвали гасконца своим другом. У Д`Артаньяна появился могущественный враг — сам кардинал Ришелье. Он не может простить мушкетеру истории с подвесками. Но даже кардинал — еще не беда. Куда страшней разъяренная белокурая тигрица миледи де Винтер. Д«Артаньян встал у нее на пути, и она решает отомстить…

Видео: AVC, 720x436 @ 1024x436 (2.35:1), 2200 kbps, 25 fps, 0,280 bpp
Аудио №1: русский / AC3 / 2.0 / 48 kHz / 192 kbps
Аудио №2: русский / AC3 / 2.0 / 48 kHz / 192 kbps
Аудио №3: русский / AC3 / 2.0 / 48 kHz / 192 kbps
Аудио №4: французский / AC3 / 2.0 / 48 kHz / 192 kbps
Аудио №5: немецкий / AC3 / 2.0 / 48 kHz / 192 kbps
Навигация по главам: есть

Format : Matroska
Format version : Version 2
File size : 2.10 GiB
Duration : 1h 34mn
Overall bit rate : 3 163 Kbps
Movie name : = Три мушкетера / Les trois mousquetaires DVDRip by SC Kosmos ( 2 серия ) =
Encoded date : UTC 2014-09-10 21:27:34
Writing application : mkvmerge v3.3.0 ('Language') gebaut am Mar 24 2010 14:59:24
Writing library : libebml v0.8.0 + libmatroska v0.9.0

Video
ID : 1
Format : AVC
Format/Info : Advanced Video Codec
Format profile : High@L4.1
Format settings, CABAC : Yes
Format settings, ReFrames : 12 frames
Codec ID : V_MPEG4/ISO/AVC
Duration : 1h 34mn
Bit rate : 2 200 Kbps
Width : 720 pixels
Height : 436 pixels
Display aspect ratio : 2.35:1
Frame rate : 25.000 fps
Color space : YUV
Chroma subsampling : 4:2:0
Bit depth : 8 bits
Scan type : Progressive
Bits/(Pixel*Frame) : 0.280
Stream size : 1.42 GiB (68%)
Title : Три мушкетера / Les trois mousquetaires DVDRip by SC Kosmos ( 2 серия )
Writing library : x264 core 142 r2453 ea0ca51
Encoding settings : cabac=1 / ref=12 / deblock=1:-2:-2 / analyse=0x3:0x113 / me=umh / subme=11 / psy=1 / psy_rd=1.00:0.00 / mixed_ref=1 / me_range=48 / chroma_me=1 / trellis=2 / 8x8dct=1 / cqm=0 / deadzone=21,11 / fast_pskip=0 / chroma_qp_offset=-2 / threads=12 / lookahead_threads=1 / sliced_threads=0 / nr=0 / decimate=1 / interlaced=0 / bluray_compat=0 / constrained_intra=0 / bframes=14 / b_pyramid=2 / b_adapt=1 / b_bias=0 / direct=3 / weightb=1 / open_gop=0 / weightp=2 / keyint=250 / keyint_min=25 / scenecut=40 / intra_refresh=0 / rc_lookahead=40 / rc=2pass / mbtree=0 / bitrate=2200 / ratetol=1.0 / qcomp=0.60 / qpmin=0 / qpmax=69 / qpstep=4 / cplxblur=20.0 / qblur=0.5 / vbv_maxrate=62500 / vbv_bufsize=78125 / nal_hrd=none / filler=0 / ip_ratio=1.40 / pb_ratio=1.30 / aq=1:1.00
Language : French
Default : No
Forced : No

Audio #1
ID : 2
Format : AC-3
Format/Info : Audio Coding 3
Mode extension : CM (complete main)
Codec ID : A_AC3
Duration : 1h 34mn
Bit rate mode : Constant
Bit rate : 192 Kbps
Channel(s) : 2 channels
Channel positions : Front: L R
Sampling rate : 48.0 KHz
Bit depth : 16 bits
Compression mode : Lossy
Stream size : 130 MiB (6%)
Title : Дубляж
Language : Russian
Default : Yes
Forced : No

Audio #2
ID : 3
Format : AC-3
Format/Info : Audio Coding 3
Mode extension : CM (complete main)
Codec ID : A_AC3
Duration : 1h 34mn
Bit rate mode : Constant
Bit rate : 192 Kbps
Channel(s) : 2 channels
Channel positions : Front: L R
Sampling rate : 48.0 KHz
Bit depth : 16 bits
Compression mode : Lossy
Stream size : 130 MiB (6%)
Title : MVO ( Студия "Инис" по заказу "Союз-Видео" )
Language : Russian
Default : No
Forced : No

Audio #3
ID : 4
Format : AC-3
Format/Info : Audio Coding 3
Mode extension : CM (complete main)
Codec ID : A_AC3
Duration : 1h 34mn
Bit rate mode : Constant
Bit rate : 192 Kbps
Channel(s) : 2 channels
Channel positions : Front: L R
Sampling rate : 48.0 KHz
Bit depth : 16 bits
Compression mode : Lossy
Stream size : 130 MiB (6%)
Title : MVO ( ТВЦ )
Language : Russian
Default : No
Forced : No

Audio #4
ID : 5
Format : AC-3
Format/Info : Audio Coding 3
Mode extension : CM (complete main)
Codec ID : A_AC3
Duration : 1h 34mn
Bit rate mode : Constant
Bit rate : 192 Kbps
Channel(s) : 2 channels
Channel positions : Front: L R
Sampling rate : 48.0 KHz
Bit depth : 16 bits
Compression mode : Lossy
Stream size : 130 MiB (6%)
Language : French
Default : No
Forced : No

Audio #5
ID : 6
Format : AC-3
Format/Info : Audio Coding 3
Mode extension : CM (complete main)
Codec ID : A_AC3
Duration : 1h 34mn
Bit rate mode : Constant
Bit rate : 192 Kbps
Channel(s) : 2 channels
Channel positions : Front: L R
Sampling rate : 48.0 KHz
Bit depth : 16 bits
Compression mode : Lossy
Stream size : 130 MiB (6%)
Language : German
Default : No
Forced : No

Menu
00:00:00.000 : en:Chapter 01
00:03:38.880 : en:Chapter 02
00:09:45.000 : en:Chapter 03
00:18:38.960 : en:Chapter 04
00:27:24.960 : en:Chapter 05
00:43:41.600 : en:Chapter 06
00:54:54.200 : en:Chapter 07
01:06:04.800 : en:Chapter 08
01:13:24.480 : en:Chapter 09
01:17:43.600 : en:Chapter 10
01:23:13.520 : en:Chapter 11
01:29:39.400 : en:Chapter 12
01:34:56.000 : en:Chapter 13

Огромное спасибо: за рус. дорожки sss777sss, cинхронизация звук. дорожек Нордер



Скачать Три.мушкетера.Les.trois.mousquetaires.(Бернар.Бордери).[1961.мелодрама.приключения.история.DVDRip-AVC].[Dub]+2x[MVO]+[Fre]+[Deu].torrent без регистрации
Золото ЗОЛОТАЯ РАЗДАЧА! СКАЧАННОЕ НЕ ЗАСЧИТЫВАЕТСЯ! Золото
Дата: Зарегистрирован   [ Тип: внутренний ] Как тут cкачать?
MAGNET ссылка
MAGNET ссылка


Скачать .torrent

22 KB

Статус: проверено DHT
Скачан: торрент - 172 раз, раздача полностью - 58 раз
Размер: 4,26 GB
Оценка:  - (Голосов: 0)
Поблагодарили: 5
Поделиться ссылкой на эту раздачу с друзьями:
В контактеFacebookОдноклассникиTwitterLivejournalМой МирLiveinternet
 

 
Показать сообщения:    


Вы не можете начинать темы
Вы не можете отвечать на сообщения
Вы не можете редактировать свои сообщения
Вы не можете удалять свои сообщения
Вы не можете голосовать в опросах
Вы не можете прикреплять файлы к сообщениям
Вы можете скачивать файлы