Loading...
Error

Скачать Кикбоксер / Kickboxer (Марк ДиСалле / Mark DiSalle, Дэвид Уорт / David Worth) [1989, боевик, триллер, спорт, BDRip] 2x[AVO] (Володарский, Либергал) + [VO] торрент без регистрации

 
Статистика раздачи
Размер:  1,46 GB   |    Скачан:  107 раз

Полного источника не было: 26 минут

 
Автор Сообщение

leon030982

[] 

Кикбоксер / Kickboxer

Год выпуска: 1989

Страна: США
Жанр: боевик, триллер, спорт
Продолжительность: 01:37:30
Перевод №1: Авторский (одноголосый, закадровый) - Леонид Володарский
Перевод №2: Авторский (одноголосый, закадровый) - Григорий Либергал
Перевод №3: Одноголосый (закадровый) - Неизвестный
Cубтитры: нет

Режиссер: Марк ДиСалле / Mark DiSalle, Дэвид Уорт / David Worth

В ролях: Жан Клод Ван Дамм (Kurt Sloane), Деннис Алексио (Eric Sloane), Деннис Чан (Xian Chow), Мишель Кисси (Tong Po), Хэскелл В. Андерсон III (Winston Taylor), Рошель Ашана (Mylee), Ка Тинг Ли (Freddy Li), Ричард Фу (Tao Liu), Рикки Лю (Big Thai Man), Син Хо Йинг (Huge Village Man #1)
Мировая премьера: 20 апреля 1989

Описание: Братья Курт и Эрик Слоан отправляются в Таиланд, на родину кикбоксинга, чтобы доказать местным бойцам превосходство американской школы над тайской. Эрик, чемпион Америки по кикбоксингу, встречается в бою с Тонг По, чемпионом Таиланда. Тонг По оказывается сущим зверем. Он намеренно калечит уже обессилевшего Эрика Слоана, обрекая его на инвалидность. Курт поступает в обучение к мастеру тайской борьбы Зену, чтобы победить Тонг По и отомстить за парализованного брата.


-> //SAMPLE//
MPAA: R - Лицам до 17 лет обязательно присутствие взрослого.

Качество: BDRip
Формат: AVI
Видео кодек: XviD
Аудио кодек: AC3
Видео: XviD, 704x384 (1,85:1), 23.976 fps, 1555 kbps avg
Аудио:1 - 48 khz, AC3 Dolby Digital, 2/0 (L,R) ch, ~192 kbps [Володарский] VHSRip
Аудио:2 - 48 khz, AC3 Dolby Digital, 2/0 (L,R) ch, ~192 kbps [Либергал] VHSRip
Аудио:3 - 48 khz, AC3 Dolby Digital, 2/0 (L,R) ch, ~192 kbps [Неизвестный] VHSRip

Цитата:

За исходник видео большое спасибо dalemake.
За оцифровку Володарского с видеокассеты большое спасибо 21Sepsis.
За оцифровку Либергала, работу над переводом и помощь в получении большое спасибо людям, пожелавшими остаться неизвестным.
За оцифровку Неизвестного с видеокассеты большое спасибо Sp1end1d.
Cинхрон Володарского и Неизвестного - JUSTKANT.

Перевод Володарского с видеокассеты, качество не очень хорошее + до 00:02:51 звук немного "жуёт", зато дальше идёт норм. Имеет несколько вставок Неизвестного на прерванные из за разрывов диалоги. Оба перевода были на полную версию фильма, в сети везде обрезанная версия.
Общее
Полное имя : E:\Альберт\Downloads\Кикбоксер (Володарский + Либергал + Неизвестный).avi
Формат : AVI
Формат/Информация : Audio Video Interleave
Размер файла : 1,46 Гбайт
Продолжительность : 1 ч. 37 м.
Общий поток : 2150 Кбит/сек
Программа кодирования : VirtualDubMod 1.5.10.2 (build 2540/release)
Библиотека кодирования : VirtualDubMod build 2540/release
Видео
Идентификатор : 0
Формат : MPEG-4 Visual
Профиль формата : Advanced Simple@L5
Параметр BVOP формата : 1
Параметр QPel формата : Нет
Параметр GMC формата : Без точки перехода
Параметр матрицы формата : Выборочная
Идентификатор кодека : XVID
Идентификатор кодека/Подсказка : XviD
Продолжительность : 1 ч. 37 м.
Битрейт : 1555 Кбит/сек
Ширина : 704 пикселя
Высота : 384 пикселя
Соотношение сторон : 1,85:1
Частота кадров : 23,976 кадра/сек
Цветовое пространство : YUV
Субдискретизация насыщенности : 4:2:0
Битовая глубина : 8 бит
Тип развёртки : Прогрессивная
Метод сжатия : С потерями
Бит/(Пиксели*Кадры) : 0.240
Размер потока : 1,06 Гбайт (72%)
Библиотека кодирования : XviD 73
Аудио #1
Идентификатор : 1
Формат : AC-3
Формат/Информация : Audio Coding 3
Расширение режима : CM (complete main)
Параметр Endianness формата : Big
Идентификатор кодека : 2000
Продолжительность : 1 ч. 37 м.
Вид битрейта : Постоянный
Битрейт : 192 Кбит/сек
Каналы : 2 канала
Расположение каналов : Front: L R
Частота : 48,0 КГц
Битовая глубина : 16 бит
Метод сжатия : С потерями
Размер потока : 134 Мбайт (9%)
Выравнивание : Разделение по промежуткам
Продолжительность промежутка : 42 мс. (1,00 видеокадр)
Время предзагрузки промежутка : 500 мс.
Аудио #2
Идентификатор : 2
Формат : AC-3
Формат/Информация : Audio Coding 3
Расширение режима : CM (complete main)
Параметр Endianness формата : Big
Идентификатор кодека : 2000
Продолжительность : 1 ч. 37 м.
Вид битрейта : Постоянный
Битрейт : 192 Кбит/сек
Каналы : 2 канала
Расположение каналов : Front: L R
Частота : 48,0 КГц
Битовая глубина : 16 бит
Метод сжатия : С потерями
Размер потока : 134 Мбайт (9%)
Выравнивание : Разделение по промежуткам
Продолжительность промежутка : 42 мс. (1,00 видеокадр)
Время предзагрузки промежутка : 500 мс.
Аудио #3
Идентификатор : 3
Формат : AC-3
Формат/Информация : Audio Coding 3
Расширение режима : CM (complete main)
Параметр Endianness формата : Big
Идентификатор кодека : 2000
Продолжительность : 1 ч. 37 м.
Вид битрейта : Постоянный
Битрейт : 192 Кбит/сек
Каналы : 2 канала
Расположение каналов : Front: L R
Частота : 48,0 КГц
Битовая глубина : 16 бит
Метод сжатия : С потерями
Размер потока : 134 Мбайт (9%)
Выравнивание : Разделение по промежуткам
Продолжительность промежутка : 42 мс. (1,00 видеокадр)
Время предзагрузки промежутка : 500 мс.



Скачать Кикбоксер.Kickboxer.(Марк.ДиСалле.Mark.DiSalle.Дэвид.Уорт.David.Worth).[1989.боевик.триллер.спорт.BDRip].2x[AVO].(Володарский.Либергал).+.[VO].torrent без регистрации
Золото ЗОЛОТАЯ РАЗДАЧА! СКАЧАННОЕ НЕ ЗАСЧИТЫВАЕТСЯ! Золото
Дата: Зарегистрирован   [ Тип: внутренний ] Как тут cкачать?
MAGNET ссылка
MAGNET ссылка


Скачать .torrent

15 KB

Статус: проверено DHT
Скачан: торрент - 107 раз, раздача полностью - 21 раз
Размер: 1,46 GB
Оценка:  5 (Голосов: 1)
Поблагодарили: 3
Поделиться ссылкой на эту раздачу с друзьями:
В контактеFacebookОдноклассникиTwitterLivejournalМой МирLiveinternet
 

 
Показать сообщения:    


Вы не можете начинать темы
Вы не можете отвечать на сообщения
Вы не можете редактировать свои сообщения
Вы не можете удалять свои сообщения
Вы не можете голосовать в опросах
Вы не можете прикреплять файлы к сообщениям
Вы можете скачивать файлы