Loading...
Error

Скачать Последний король Шотландии / The Last King of Scotland (Кевин МакДональд / Kevin Macdonald) [2006, драма, биография, история, BDRip] [MVO] (Первый канал) + Original Eng торрент без регистрации

 
Статистика раздачи
Размер:  1,96 GB   |    Скачан:  100 раз
Сидов:  1  [  0 KB/s  ]  
 
Автор Сообщение

leon030982

[] 

Последний король Шотландии / The Last King of Scotland


Год выпуска: 2006
Страна: Великобритания, Германия, США
Жанр: драма, биография, история
Продолжительность: 02:03:00
Перевод: Профессиональный (многоголосый, закадровый) [Первый канал]
Cубтитры: нет
Оригинальная аудиодорожка: английский

Режиссер: Кевин МакДональд / Kevin Macdonald

В ролях: Форест Уитакер, Джеймс МакЭвой, Керри Вашингтон, Джиллиан Андерсон, Саймон МакБерни, Дэвид Ойелоуо, Адам Котц

Описание: Власть президента Уганды Иди Амина и его смелые решения сперва очаровали шотландского медика Гарригана, ставшего личным врачом диктатора. Но жестокий режим и кровавые преступления президента изменили отношение Гарригана к своему кумиру и он, всеми силами, пытается повлиять на проиcходящее.

Сэмпл

Качество: BDRip
Формат: AVI
Видео кодек: XviD
Аудио кодек: AC3
Видео: 720x304 (2.37:1), 23.976 fps, XviD build 50 ~1630 kbps avg, 0.31 bit/pixel
Аудио 1: 48 kHz, AC3 Dolby Digital, 2/0 (L,R) ch, ~192.00 kbps avg [Первый канал]
Аудио 2: 48 kHz, AC3 Dolby Digital, 3/2 (L,C,R,l,r) + LFE ch, ~448.00 kbps avg [Оригинал]

Цитата:

Премия Оскар и золотой глобус за лучшую мужскую роль - Форрест Уитакер
MVO первого канала записал,отсинхронил,предоставил пользователь mister55555 ,спасибо ему огромное
Format : AVI
Format/Info : Audio Video Interleave
File size : 1.96 GiB
Duration : 2h 3mn
Overall bit rate : 2 286 Kbps
Writing application : VirtualDubMod 1.5.10.3 | www.virtualdub-fr.org || (build 2550/release)
Writing library : VirtualDubMod build 2550/release
Video
ID : 0
Format : MPEG-4 Visual
Format profile : Advanced Simple@L5
Format settings, BVOP : 2
Format settings, QPel : No
Format settings, GMC : No warppoints
Format settings, Matrix : Custom
Codec ID : XVID
Codec ID/Hint : XviD
Duration : 2h 3mn
Bit rate : 1 632 Kbps
Width : 720 pixels
Height : 304 pixels
Display aspect ratio : 2.35:1
Frame rate : 23.976 fps
Color space : YUV
Chroma subsampling : 4:2:0
Bit depth : 8 bits
Scan type : Progressive
Compression mode : Lossy
Bits/(Pixel*Frame) : 0.311
Stream size : 1.40 GiB (71%)
Writing library : XviD 1.2.1 (UTC 2008-12-04)
Audio #1
ID : 1
Format : AC-3
Format/Info : Audio Coding 3
Mode extension : CM (complete main)
Codec ID : 2000
Duration : 2h 3mn
Bit rate mode : Constant
Bit rate : 192 Kbps
Channel(s) : 2 channels
Channel positions : Front: L R
Sampling rate : 48.0 KHz
Bit depth : 16 bits
Compression mode : Lossy
Stream size : 169 MiB (8%)
Alignment : Split accross interleaves
Interleave, duration : 42 ms (1.00 video frame)
Interleave, preload duration : 500 ms
Audio #2
ID : 2
Format : AC-3
Format/Info : Audio Coding 3
Mode extension : CM (complete main)
Codec ID : 2000
Duration : 2h 3mn
Bit rate mode : Constant
Bit rate : 448 Kbps
Channel(s) : 6 channels
Channel positions : Front: L C R, Side: L R, LFE
Sampling rate : 48.0 KHz
Bit depth : 16 bits
Compression mode : Lossy
Stream size : 394 MiB (20%)
Alignment : Split accross interleaves
Interleave, duration : 42 ms (1.00 video frame)
Interleave, preload duration : 500 ms



Скачать Последний.король.Шотландии.The.Last.King.of.Scotland.(Кевин.МакДональд.Kevin.Macdonald).[2006.драма.биография.история.BDRip].[MVO].(Первый.канал).+.Original.Eng.torrent без регистрации
Золото ЗОЛОТАЯ РАЗДАЧА! СКАЧАННОЕ НЕ ЗАСЧИТЫВАЕТСЯ! Золото
Дата: Зарегистрирован   [ Тип: внутренний ] Как тут cкачать?
MAGNET ссылка
MAGNET ссылка


Скачать .torrent

20 KB

Статус: проверено DHT
Скачан: торрент - 100 раз, раздача полностью - 19 раз
Размер: 1,96 GB
Оценка:  - (Голосов: 0)
Поблагодарили: 0
Поделиться ссылкой на эту раздачу с друзьями:
В контактеFacebookОдноклассникиTwitterLivejournalМой МирLiveinternet
 

 
Показать сообщения:    


Вы не можете начинать темы
Вы не можете отвечать на сообщения
Вы не можете редактировать свои сообщения
Вы не можете удалять свои сообщения
Вы не можете голосовать в опросах
Вы не можете прикреплять файлы к сообщениям
Вы можете скачивать файлы