Loading...
Error

Скачать Риццоли и Айлс / Rizzoli & Isles (сезон 05) (Билл Хабер) [2014, драма, детектив, WEB-DL] [720p] [MVO (NewStudio)]+[Eng] торрент без регистрации

 
Статистика раздачи
Размер:  25,56 GB   |    Скачан:  180 раз
Сидов:  1  [  0 KB/s  ]  
 
Автор Сообщение

МихаНЕзатор

[] 

Информация о фильме
Название: Риццоли и Айлс
Оригинальное название: Rizzoli & Isles
Год выхода: 2014
Жанр: Драма, детектив
Режиссер: Билл Хабер


В ролях: Саша Александер, Энджи Хэрмон, Лоррейн Бракко, Брюс МакГилл, Дженнифер Холлэнд, Джэйсон Блэр, Том Бауэр, Джордан Бриджес, Мариса Рамирез, Кристал Рид, Ли Томпсон Янг, Брайан Гудман, Рик Чэмберс, Райан Джеймс Нолан, Чазз Пальминтери, Майкл Масси, Дэррил Алан Рид, Билли Бёрк, Донни Уолберг, Колин Эглсфилд, Крис Батлер, Джек Конли, Омар Дж. Дорси, Джон Доумен



О фильме: Добро пожаловать в Бостон, штат Массачусетс, где живут и работают две потрясающие женщины: детектив убойного отдела полиции Бостона Джейн Риццоли и старший судмедэксперт Мора Айлс.
Они совершенно разные, но дополняют достоинства друг друга, выполняя любимую работу: раскрытие убийств. Экранизация серии романов Тесс Герритсен.





Страна: США
Продолжительность: ~ 00:42:30
Перевод: профессиональный (многоголосый, закадровый) - NewStudio



Файл
Кодек: x264
Качество: WEB-DL 720p
Видео: MPEG-4 AVC, ~ 3992 Кбит/с, 1280x718
Звук:
Аудио 1: Russian: 48 kHz, AC3, 3/2 (L,C,R,l,r) + LFE ch, ~384.00 kbps avg
Аудио 2: English: 48 kHz, AC3, 3/2 (L,C,R,l,r) + LFE ch, ~384.00 kbps avg

АНОНСЫ ПОПУЛЯРНЫХ РАЗДАЧ


Торрент обновлён, добавлена 18-я серия!

01. Новый день / A New Day
02. Прощай / Goodbye
03. Too Good to Be True
04. Судный день / Doomsday
05. Идеальный план / The Best Laid Plans
06. Нокаут / Knockout
07. Кельты Бостона / Boston Keltic
08. Потерять и найти / Lost & Found
09. Взяться всем миром / It Takes a Village
10. Восставший из пепла / Phoenix Rising
11. Если не переносишь жару / If You Can't Stand the Heat
12. Бремя доказательств / Burden of Proof
13. Мост в завтра / Bridge to Tomorrow
14. Потерянная нога / Footloose
15. Сыщик / Gumshoe
16. In Plain View
17. Bite Out of Crime
18. Family Matters

General
Unique ID : 204873636907138230823068064703087048444 (0x9A213A2AA9ED2E149CE16385897AF6FC)
Complete name : G:СериалыRizzoli.Isles.S05.WEB-DL.720p.NewStudioRizzoli.&.Isles.s05e01.WEBDL.720p.NewStudio.TV.mkv
Format : Matroska
Format version : Version 2
File size : 1.43 GiB
Duration : 42mn 14s
Overall bit rate : 4 857 Kbps
Encoded date : UTC 2014-06-28 09:59:10
Writing application : mkvmerge v2.9.9 ('Tutu') built on Nov 25 2009 21:13:32
Writing library : libebml v0.7.9 + libmatroska v0.8.1

Video
ID : 1
Format : AVC
Format/Info : Advanced Video Codec
Format profile : High@L3.1
Format settings, CABAC : No
Format settings, ReFrames : 2 frames
Codec ID : V_MPEG4/ISO/AVC
Duration : 42mn 14s
Bit rate : 3 992 Kbps
Width : 1 280 pixels
Height : 718 pixels
Display aspect ratio : 16:9
Frame rate mode : Constant
Frame rate : 23.976 fps
Color space : YUV
Chroma subsampling : 4:2:0
Bit depth : 8 bits
Scan type : Progressive
Bits/(Pixel*Frame) : 0.181
Stream size : 1.18 GiB (82%)
Language : English
Default : No
Forced : No
Color primaries : BT.709
Transfer characteristics : BT.709
Matrix coefficients : BT.709

Audio #1
ID : 2
Format : AC-3
Format/Info : Audio Coding 3
Mode extension : CM (complete main)
Format settings, Endianness : Big
Codec ID : A_AC3
Duration : 42mn 14s
Bit rate mode : Constant
Bit rate : 384 Kbps
Channel(s) : 6 channels
Channel positions : Front: L C R, Side: L R, LFE
Sampling rate : 48.0 KHz
Bit depth : 16 bits
Compression mode : Lossy
Stream size : 116 MiB (8%)
Language : Russian
Default : Yes
Forced : Yes

Audio #2
ID : 3
Format : AC-3
Format/Info : Audio Coding 3
Mode extension : CM (complete main)
Format settings, Endianness : Big
Codec ID : A_AC3
Duration : 42mn 14s
Bit rate mode : Constant
Bit rate : 384 Kbps
Channel(s) : 6 channels
Channel positions : Front: L C R, Side: L R, LFE
Sampling rate : 48.0 KHz
Bit depth : 16 bits
Compression mode : Lossy
Stream size : 116 MiB (8%)
Language : English
Default : No
Forced : No



Скачать Риццоли.и.Айлс.Rizzoli.&.Isles.(сезон.05).(Билл.Хабер).[2014.драма.детектив.WEB-DL].[720p].[MVO.(NewStudio)]+[Eng].torrent без регистрации
Золото ЗОЛОТАЯ РАЗДАЧА! СКАЧАННОЕ НЕ ЗАСЧИТЫВАЕТСЯ! Золото
Дата: Зарегистрирован   [ Тип: внутренний ] Как тут cкачать?
MAGNET ссылка
MAGNET ссылка


Скачать .torrent

130 KB

Статус: проверено DHT
Скачан: торрент - 180 раз, раздача полностью - 0 раз
Размер: 25,56 GB
Оценка:  - (Голосов: 0)
Поблагодарили: 0
Поделиться ссылкой на эту раздачу с друзьями:
В контактеFacebookОдноклассникиTwitterLivejournalМой МирLiveinternet
 

 
Показать сообщения:    


Вы не можете начинать темы
Вы не можете отвечать на сообщения
Вы не можете редактировать свои сообщения
Вы не можете удалять свои сообщения
Вы не можете голосовать в опросах
Вы не можете прикреплять файлы к сообщениям
Вы можете скачивать файлы