Loading...
Error

Скачать Под куполом / Under the Dome (сезон 03) (Нильс Арден Оплев, Джек Бендер) [2015, фантастика, триллер, драма, детектив, WEB-DLRip] [MVO (LostFilm)]+[Eng] торрент без регистрации

 
Статистика раздачи
Размер:  6,95 GB   |    Скачан:  2590 раз
Сидов:  1  [  0 KB/s  ]  
 
Автор Сообщение

МихаНЕзатор

[] 

Информация о фильме
Название: Под куполом
Оригинальное название: Under the Dome
Год выхода: 2015
Жанр: фантастика, ужасы
Режиссеры: Джек Бендер, Нильс Арден Оплев, Кари Скогланд, Мигель Сапочник, Серджо Мимика-Геззан

В ролях: Майк Фогель, Колин Форд, Аиша Хиндс, Александр Кох, Рашель Лефевр, Натали Мартинез, Дин Норрис, Джолин Парди, Бриттани Робертсон, Николас Стронг, Нед Беллами, Дэйл Рауль, Р. Кейт Харрис, Стив Болдуин, Шерри Боулинг, Кевин Сайзмор, Эндрю Фогель, Джеймс Алком, Линдс Эдвардс, Джефф Фэйи, Кристал Мартинез, Маккензи Линтц

О фильме: Обычным, пригожим осенним днем, город Честерс Миллз, штат Мэн, был внезапно отрезан от остального мира невидимым силовым барьером. Самолеты врезаются в купол и падают, пылая, с небес; садовнику отрезает силовым полем руку; люди, выехавшие в соседний город по делам, не могут вернуться к своим близким; автомобили взрываются от столкновения с куполом. Никто не понимает, что это за барьер, откуда он взялся и исчезнет ли он.



Сравнение скриншотов

Видео без рекламной вставки и логотипа «LostFilm»

Страна: США
Продолжительность: 00:43:00
Перевод: Профессиональный (многоголосый закадровый) | LostFilm

Файл
Качество: WEB-DLRip
Формат: AVI
Видео: 720x400 (1.80:1), 23.976 fps, XviD build 50 ~1500 kbps avg, 0.28 bit/pixel
Аудио Rus: 48 kHz, MPEG Layer 3, 2 ch, ~128.00 kbps avg
Аудио Eng: 48 kHz, MPEG Layer 3, 2 ch, ~128.00 kbps avg
Субтитры: нет

АНОНСЫ ПОПУЛЯРНЫХ РАЗДАЧ


Торрент обновлён, добавлена 13-я серия!

01-02. Идите дальше/А я останусь (Move On/But I\'m Not)
03. Возвращение (Redux)
04. Общность (The Kinship)
05. Аляска (Alaska)
06. В клетке (Caged)
07. Выброс (Ejecta)
08. Переломный момент (Breaking Point)
09. План Б (Plan B)
10. Наследие (Legacy)
11. Любовь - это поле боя (Love Is a Battlefield)
12. Накаливание (Incandescence)
13. Чужой среди нас (The Enemy Within)

Код:

Формат                                   : AVI
Формат/Информация                        : Audio Video Interleave
Размер файла                             : 1,03 Гбайт
Продолжительность                        : 1 ч. 23 м.
Общий поток                              : 1772 Кбит/сек
Программа кодирования                    : VirtualDubMod 1.5.10.3 (build 2550/release)
Библиотека кодирования                   : VirtualDubMod build 2550/release
Видео
Идентификатор                            : 0
Формат                                   : MPEG-4 Visual
Профиль формата                          : Advanced Simple@L5
Параметр BVOP формата                    : 2
Параметр QPel формата                    : Нет
Параметр GMC формата                     : Без точки перехода
Параметр матрицы формата                 : Default (H.263)
Идентификатор кодека                     : XVID
Идентификатор кодека/Подсказка           : XviD
Продолжительность                        : 1 ч. 23 м.
Битрейт                                  : 1502 Кбит/сек
Ширина                                   : 720 пикселей
Высота                                   : 400 пикселей
Соотношение сторон                       : 16:9
Частота кадров                           : 23,976 кадра/сек
Цветовое пространство                    : YUV
Субдискретизация насыщенности            : 4:2:0
Битовая глубина                          : 8 бит
Тип развёртки                            : Прогрессивная
Метод сжатия                             : С потерями
Бит/(Пиксели*Кадры)                      : 0.218
Размер потока                            : 894 Мбайт (85%)
Библиотека кодирования                   : XviD 1.2.1 (UTC 2008-12-04)
Аудио #1
Идентификатор                            : 1
Формат                                   : MPEG Audio
Версия формата                           : Version 1
Профиль формата                          : Layer 3
Режим                                    : Joint stereo
Расширение режима                        : MS Stereo
Идентификатор кодека                     : 55
Идентификатор кодека/Подсказка           : MP3
Продолжительность                        : 1 ч. 23 м.
Вид битрейта                             : Постоянный
Битрейт                                  : 128 Кбит/сек
Каналы                                   : 2 канала
Частота                                  : 48,0 КГц
Метод сжатия                             : С потерями
Размер потока                            : 76,2 Мбайт (7%)
Выравнивание                             : Соединение по промежуткам
Продолжительность промежутка             : 42  мс. (1,00 видеокадр)
Время предзагрузки промежутка            : 504  мс.
Аудио #2
Идентификатор                            : 2
Формат                                   : MPEG Audio
Версия формата                           : Version 1
Профиль формата                          : Layer 3
Режим                                    : Joint stereo
Расширение режима                        : MS Stereo
Идентификатор кодека                     : 55
Идентификатор кодека/Подсказка           : MP3
Продолжительность                        : 1 ч. 23 м.
Вид битрейта                             : Постоянный
Битрейт                                  : 128 Кбит/сек
Каналы                                   : 2 канала
Частота                                  : 48,0 КГц
Метод сжатия                             : С потерями
Размер потока                            : 76,2 Мбайт (7%)
Выравнивание                             : Соединение по промежуткам
Продолжительность промежутка             : 42  мс. (1,00 видеокадр)
Время предзагрузки промежутка            : 504  мс.
Внимание! Раздача ведётся путём добавления новых серий; при каждом добавлении создаётся новый торрент. Чтобы начать докачку новой серии, пользователям необходимо сделать следующее:
(1) остановить скачивание,
(2) удалить старый торрент у себя из клиента (старые серии удалять не надо),
(3) скачать новый торрент и запустить его у себя в клиенте вместо старого, при этом указать клиенту путь в старую папку куда и должно происходить скачивание новых серий.
Ваш клиент при этом должен произвести хеширование (проверку) старой папки (если не производит сам - помогите ему сделать это), и будет докачивать только те серии которых у вас ещё нет. Старые серии при этом не удаляются, а продолжают раздаваться!
Eсли вы уже удалили старые серии, то предотвратить повторную закачку старых серий можно, отжав галочку в соответствующих местах при запуске нового торрента. По возможности, желательно не удалять старые серии как можно дольше чтобы релизёр не столько продолжал раздавать старые серии, а смог сконцентрироваться на новых.



Скачать Под.куполом.Under.the.Dome.(сезон.03).(Нильс.Арден.Оплев.Джек.Бендер).[2015.фантастика.триллер.драма.детектив.WEB-DLRip].[MVO.(LostFilm)]+[Eng].torrent без регистрации
Золото ЗОЛОТАЯ РАЗДАЧА! СКАЧАННОЕ НЕ ЗАСЧИТЫВАЕТСЯ! Золото
Дата: Зарегистрирован   [ Тип: внутренний ] Как тут cкачать?
MAGNET ссылка
MAGNET ссылка


Скачать .torrent

36 KB

Статус: проверено DHT
Скачан: торрент - 2590 раз, раздача полностью - 108 раз
Размер: 6,95 GB
Оценка:  - (Голосов: 0)
Поблагодарили: 4
Поделиться ссылкой на эту раздачу с друзьями:
В контактеFacebookОдноклассникиTwitterLivejournalМой МирLiveinternet
 

 
Показать сообщения:    


Вы не можете начинать темы
Вы не можете отвечать на сообщения
Вы не можете редактировать свои сообщения
Вы не можете удалять свои сообщения
Вы не можете голосовать в опросах
Вы не можете прикреплять файлы к сообщениям
Вы можете скачивать файлы