Loading...
Error

Скачать После смерти / Некромания / Postmortem (Альберт Пьюн / Albert Pyun) [1998, триллер, DVDRip-AVC] [DVO] + [AVO] (В.Горчаков) + [Sub] Rus + Original Eng торрент без регистрации

 
Статистика раздачи
Размер:  1,46 GB   |    Скачан:  109 раз
Сидов:  1  [  0 KB/s  ]  
 
Автор Сообщение

leon030982

[] 

Некромания / После смерти / Postmortem
Единственный способ поймать серийного убийцу - знать, что он чувствует, о чём думает, и когда ударит... снова.




Год выпуска: 1998
Страна: США
Жанр: триллер
Продолжительность: 01:40:52
Перевод 1: Профессиональный (двухголосый, закадровый)
Перевод 2: Авторский (одноголосый, закадровый) В.Горчаков
Cубтитры: русские
Оригинальная аудиодорожка: английский

Режиссер: Альберт Пьюн

В ролях: Чарли Шин, Майкл Халсли, Ивана Миличевич, Стивен МакКоул, Гари Льюис, Дейв Андерсон, Стивен Дочерти

Описание: Капитан полиции МакГрегор из Сан-Франциско, занимающийся долгие годы расследованием убийств, написал книгу о своем опыте многолетнего столкновения с различными формами насильственной смерти. Книга эта стала бестселлером, а сам автор, опасаясь за собственный рассудок, уехал в поисках покоя из Америки в Глазго, откуда родом был еще его дед. В один «прекрасный» день к нему приходит факс, в котором... некролог на еще живую девушку, ставшую через несколько часов мертвой. Она была умерщвлена уколом яда, из тела была откачана кровь, а труп был подложен к ограде дома писателя-полицейского. Один за другим приходят факсы, и гибнут девушки. Полиция просит МакГрегора присоединиться к следствию, и он соглашается, чему способствует и визит отца первой жертвы.



Качество: DVDRip-AVC
Формат: MKV
Видео кодек: h.264
Аудио кодек: AC3
Видео: V_MPEG4/ISO/AVC, 1014x552@712x552, 25fps, 1492kbps
Аудио #1: AC3, 48000Hz, 192kbps, 2ch, ENG
Аудио #2: AC3, 48000Hz, 192kbps, 2ch, DVO
Аудио #3: AC3, 48000Hz, 192kbps, 2ch, AVO

Цитата:

За исходник Горчакова спасибо exsmo
General
Unique ID : 227528486976270696053244189026363548199 (0xAB2C648331D72C888B145320E726A227)
Complete name : E:\После смерти\[1998] Postmortem.mkv
Format : Matroska
Format version : Version 2
File size : 1.46 GiB
Duration : 1h 40mn
Overall bit rate : 2 070 Kbps
Encoded date : UTC 2014-02-02 15:10:31
Writing application : mkvmerge v4.0.0 ('The Stars were mine') сборка от Jun 6 2010 16:18:42
Writing library : libebml v1.0.0 + libmatroska v1.0.0
Video
ID : 1
Format : AVC
Format/Info : Advanced Video Codec
Format profile : High@L4.1
Format settings, CABAC : Yes
Format settings, ReFrames : 9 frames
Codec ID : V_MPEG4/ISO/AVC
Duration : 1h 40mn
Bit rate : 1 492 Kbps
Width : 712 pixels
Height : 552 pixels
Display aspect ratio : 1.880
Original display aspect ratio : 1.882
Frame rate : 25.000 fps
Color space : YUV
Chroma subsampling : 4:2:0
Bit depth : 8 bits
Scan type : Progressive
Bits/(Pixel*Frame) : 0.152
Stream size : 1.02 GiB (70%)
Title : (c) fozzy412
Writing library : x264 core 138 r2358 9e941d1
Encoding settings : cabac=1 / ref=9 / deblock=1:-2:-1 / analyse=0x3:0x133 / me=umh / subme=9 / psy=1 / psy_rd=1.00:0.00 / mixed_ref=1 / me_range=24 / chroma_me=1 / trellis=2 / 8x8dct=1 / cqm=0 / deadzone=21,11 / fast_pskip=1 / chroma_qp_offset=-2 / threads=6 / lookahead_threads=1 / sliced_threads=0 / nr=0 / decimate=1 / interlaced=0 / bluray_compat=0 / constrained_intra=0 / bframes=8 / b_pyramid=2 / b_adapt=2 / b_bias=0 / direct=3 / weightb=1 / open_gop=0 / weightp=2 / keyint=250 / keyint_min=1 / scenecut=40 / intra_refresh=0 / rc_lookahead=60 / rc=2pass / mbtree=1 / bitrate=1492 / ratetol=1.0 / qcomp=0.60 / qpmin=0 / qpmax=69 / qpstep=4 / cplxblur=20.0 / qblur=0.5 / vbv_maxrate=62500 / vbv_bufsize=78125 / nal_hrd=none / ip_ratio=1.40 / aq=1:1.00
Language : English
Audio #1
ID : 2
Format : AC-3
Format/Info : Audio Coding 3
Mode extension : CM (complete main)
Codec ID : A_AC3
Duration : 1h 40mn
Bit rate mode : Constant
Bit rate : 192 Kbps
Channel(s) : 2 channels
Channel positions : Front: L R
Sampling rate : 48.0 KHz
Bit depth : 16 bits
Compression mode : Lossy
Stream size : 139 MiB (9%)
Title : Оригинальная дорожка
Language : English
Audio #2
ID : 3
Format : AC-3
Format/Info : Audio Coding 3
Mode extension : CM (complete main)
Codec ID : A_AC3
Duration : 1h 40mn
Bit rate mode : Constant
Bit rate : 192 Kbps
Channel(s) : 2 channels
Channel positions : Front: L R
Sampling rate : 48.0 KHz
Bit depth : 16 bits
Compression mode : Lossy
Stream size : 139 MiB (9%)
Title : Двухголосый закадровый
Language : Russian
Audio #3
ID : 4
Format : AC-3
Format/Info : Audio Coding 3
Mode extension : CM (complete main)
Codec ID : A_AC3
Duration : 1h 40mn
Bit rate mode : Constant
Bit rate : 192 Kbps
Channel(s) : 2 channels
Channel positions : Front: L R
Sampling rate : 48.0 KHz
Bit depth : 16 bits
Compression mode : Lossy
Stream size : 139 MiB (9%)
Title : Авторский одноголосый
Language : Russian
Text
ID : 5
Format : UTF-8
Codec ID : S_TEXT/UTF8
Codec ID/Info : UTF-8 Plain Text
Title : SRT
Language : Russian



Скачать После.смерти.Некромания.Postmortem.(Альберт.Пьюн.Albert.Pyun).[1998.триллер.DVDRip-AVC].[DVO].+.[AVO].(В.Горчаков).+.[Sub].Rus.+.Original.Eng.torrent без регистрации
Золото ЗОЛОТАЯ РАЗДАЧА! СКАЧАННОЕ НЕ ЗАСЧИТЫВАЕТСЯ! Золото
Дата: Зарегистрирован   [ Тип: внутренний ] Как тут cкачать?
MAGNET ссылка
MAGNET ссылка


Скачать .torrent

2 KB

Статус: проверено DHT
Скачан: торрент - 109 раз, раздача полностью - 8 раз
Размер: 1,46 GB
Оценка:  - (Голосов: 0)
Поблагодарили: 2
Поделиться ссылкой на эту раздачу с друзьями:
В контактеFacebookОдноклассникиTwitterLivejournalМой МирLiveinternet
 

 
Показать сообщения:    


Вы не можете начинать темы
Вы не можете отвечать на сообщения
Вы не можете редактировать свои сообщения
Вы не можете удалять свои сообщения
Вы не можете голосовать в опросах
Вы не можете прикреплять файлы к сообщениям
Вы можете скачивать файлы