Loading...
Error

Скачать Гоморра / Gomorra (сезон 01) (Стефано Соллима, Клаудио Купеллини, Франческа Коменчини) [2014, криминал, драма, мафия, HDTVRip] [MVO (Первый канал)] торрент без регистрации

 
Статистика раздачи
Размер:  6,87 GB   |    Скачан:  131 раз
Сидов:  1  [  0 KB/s  ]  
 
Автор Сообщение

МихаНЕзатор

[] 

Информация о фильме
Название: Гоморра
Оригинальное название: Gomorra
Год выхода: 2014
Жанр: криминал, драма, мафия
Режиссер: Стефано Соллима, Клаудио Купеллини, Франческа Коменчини


В ролях: Марко Д’Аморе, Фортунато Черлино, Мария Пиа Кальцоне, Сальваторе Эспозито, Марко Палветти, Доменико Бальзамо, Массимильяно Росси, Энзо Сачеттино, Элена Стараче, Антонио Мило



О фильме: Сериал "Гоморра" повествует об итальянской мафиозной корпорации несколько веков державшей в страхе весь Неаполь и в какой-то мере контролирующая его до сих пор. Сейчас все еще не оконченна война общества против бандитов и коррумпированных властей и мафиозные разборки здесь не хуже, чем на Сицилии.



Релиз от:



Выпущено: Италия, Германия
Студия: Cattleya, Fandango, Sky
Продолжительность: 12 х ~ 00:55:00
Перевод: Профессиональный многоголосый



Файл
Кодек: XviD
Качество: HDTVRip
Видео: 1500 Кбит/с, 720x384
Аудио: Русский (AC3, 2 ch, 192 Кбит/с) / Профессиональный многоголосый (Первый канал)



АНОНСЫ ПОПУЛЯРНЫХ РАЗДАЧ

Общее
Полное имя : F:...Gomorra.S01E01.HDTVRip.Rus.MediaClub.avi
Формат : AVI
Формат/Информация : Audio Video Interleave
Размер файла : 626 Мбайт
Продолжительность : 51 м.
Общий поток : 1702 Кбит/сек
Название фильма : Gomorra - Episode 1
Режиссёр : MediaClub
Программа кодирования : VirtualDubMod 1.5.10.2 (build 2540/release)

Видео
Идентификатор : 0
Формат : MPEG-4 Visual
Профиль формата : Advanced Simple@L5
Параметр BVOP формата : 2
Параметр QPel формата : Нет
Параметр GMC формата : Без точки перехода
Параметр матрицы формата : Default (MPEG)
Идентификатор кодека : XVID
Идентификатор кодека/Подсказка : XviD
Продолжительность : 51 м.
Битрейт : 1500 Кбит/сек
Ширина : 720 пикселей
Высота : 384 пикселя
Соотношение сторон : 1,85:1
Частота кадров : 25,000 кадров/сек
Цветовое пространство : YUV
Субдискретизация насыщенности : 4:2:0
Битовая глубина : 8 бит
Тип развёртки : Прогрессивная
Метод сжатия : С потерями
Бит/(Пиксели*Кадры) : 0.217
Размер потока : 552 Мбайт (88%)
Библиотека кодирования : XviD 1.2.1 (UTC 2008-12-04)

Аудио
Идентификатор : 1
Формат : AC-3
Формат/Информация : Audio Coding 3
Расширение режима : CM (complete main)
Параметр Endianness формата : Big
Идентификатор кодека : 2000
Продолжительность : 51 м.
Вид битрейта : Постоянный
Битрейт : 192 Кбит/сек
Каналы : 2 канала
Расположение каналов : Front: L R
Частота : 48,0 КГц
Битовая глубина : 16 бит
Метод сжатия : С потерями
Размер потока : 70,6 Мбайт (11%)
Выравнивание : Разделение по промежуткам
Продолжительность промежутка : 40 мс. (1,00 видеокадр)
Время предзагрузки промежутка : 500 мс.



Скачать Гоморра.Gomorra.(сезон.01).(Стефано.Соллима.Клаудио.Купеллини.Франческа.Коменчини).[2014.криминал.драма.мафия.HDTVRip].[MVO.(Первый.канал)].torrent без регистрации
Золото ЗОЛОТАЯ РАЗДАЧА! СКАЧАННОЕ НЕ ЗАСЧИТЫВАЕТСЯ! Золото
Дата: Зарегистрирован   [ Тип: внутренний ] Как тут cкачать?
MAGNET ссылка
MAGNET ссылка


Скачать .torrent

11 KB

Статус: проверено DHT
Скачан: торрент - 131 раз, раздача полностью - 65 раз
Размер: 6,87 GB
Оценка:  - (Голосов: 0)
Поблагодарили: 0
Поделиться ссылкой на эту раздачу с друзьями:
В контактеFacebookОдноклассникиTwitterLivejournalМой МирLiveinternet
 

 
Показать сообщения:    


Вы не можете начинать темы
Вы не можете отвечать на сообщения
Вы не можете редактировать свои сообщения
Вы не можете удалять свои сообщения
Вы не можете голосовать в опросах
Вы не можете прикреплять файлы к сообщениям
Вы можете скачивать файлы