Loading...
Error

Скачать Любовницы / Mistresses (US) (сезон 02) (Константин Макрис и др.) [2014, драма, триллер, WEB-DL] [1080p] [Dub (Fox Life)]+[Eng] торрент без регистрации

 
Статистика раздачи
Размер:  21,99 GB   |    Скачан:  5359 раз
Сидов:  1  [  0 KB/s  ]  
 
Автор Сообщение

МихаНЕзатор

[] 

Информация о фильме
Название: Любовницы
Оригинальное название: Mistresses
Год выхода: 2014
Жанр: Драма
Режиссер: Константин Макрис, Чери Ноулан, Дэвид Пэймер


В ролях: Рошелль Эйтс, Джесс Макаллан, Шаннин Соссамон, Корина Мессиа, Эрик Стоклин, Юнжин Ким, Алисса Милано, Эшли Ньюбро, Темина Санни, Джейден Уайт и др.



О фильме: Американский драматический телесериал, разработанный К. Й. Стейнберг и основанный на одноименном британском телесериале 2008—2010 годов.
Провокационная и захватывающая драма о скандальной жизни сексуальной и нахальной группы из четырех подруг, каждая из которой находится в сложных и опасных отношениях с окружающими.






Страна: США, Великобритания
Продолжительность: ~ 00:43:00
Перевод: Профессиональный (дублированный) - Fox Life



Файл
Кодек: x264
Качество: WEB-DL 1080p
Видео: MPEG-4 AVC, ~ 5000 Кбит/с, 1920x1080
Звук: Русский (AC3, 2 ch, 192 Кбит/с), английский (AC3, 6 ch, 384 Кбит/с)

АНОНСЫ ПОПУЛЯРНЫХ РАЗДАЧ


27.11.2014 г. торент обновлён, добавлена 13-я серия!

01. Rebuild
02. Boundaries
03. Open House
04. Friends with Benefits
05. Playing with Fire
06. What Do You Really Want
07. Why Do Fools Fall in Love?
08. An Affair to Surrender
09. Coming Clean
10. Charades
11. Choices
12. Surprise
13. Til Death Do Us Part
Общее
Уникальный идентификатор : 216023041203958829463308474882563506380 (0xA284863D52F29A00BFEA2469D55000CC)
Полное имя : Mistresses.s02.WEBDL.1080p.NewStudioMistresses.s02e04.WEBDL.1080p.NewStudio.TV.mkv
Формат : Matroska
Версия формата : Version 2
Размер файла : 1,66 Гбайт
Продолжительность : 43 м.
Общий поток : 5506 Кбит/сек
Дата кодирования : UTC 2014-09-23 08:07:11
Программа кодирования : mkvmerge v2.9.9 ('Tutu') built on Nov 25 2009 21:13:32
Библиотека кодирования : libebml v0.7.9 + libmatroska v0.8.1

Видео
Идентификатор : 1
Формат : AVC
Формат/Информация : Advanced Video Codec
Профиль формата : High@L4.0
Параметр CABAC формата : Да
Параметр ReFrames формата : 4 кадра
Идентификатор кодека : V_MPEG4/ISO/AVC
Продолжительность : 43 м.
Битрейт : 4821 Кбит/сек
Ширина : 1920 пикселей
Высота : 1080 пикселей
Соотношение сторон : 16:9
Режим частоты кадров : Постоянный
Частота кадров : 23,976 кадра/сек
Цветовое пространство : YUV
Субдискретизация насыщенности : 4:2:0
Битовая глубина : 8 бит
Тип развёртки : Прогрессивная
Бит/(Пиксели*Кадры) : 0.097
Размер потока : 1,45 Гбайт (88%)
Язык : English
Default : Нет
Forced : Нет
Основные цвета : BT.709
Характеристики трансфера : BT.709
Коэффициенты матрицы : BT.709

Аудио #1
Идентификатор : 2
Формат : AC-3
Формат/Информация : Audio Coding 3
Расширение режима : CM (complete main)
Параметр Endianness формата : Big
Идентификатор кодека : A_AC3
Продолжительность : 43 м.
Вид битрейта : Постоянный
Битрейт : 192 Кбит/сек
Каналы : 2 канала
Расположение каналов : Front: L R
Частота : 48,0 КГц
Битовая глубина : 16 бит
Метод сжатия : С потерями
Размер потока : 59,2 Мбайт (3%)
Язык : Russian
Default : Да
Forced : Да

Аудио #2
Идентификатор : 3
Формат : AC-3
Формат/Информация : Audio Coding 3
Расширение режима : CM (complete main)
Параметр Endianness формата : Big
Идентификатор кодека : A_AC3
Продолжительность : 43 м.
Вид битрейта : Постоянный
Битрейт : 384 Кбит/сек
Каналы : 6 каналов
Расположение каналов : Front: L C R, Side: L R, LFE
Частота : 48,0 КГц
Битовая глубина : 16 бит
Метод сжатия : С потерями
Размер потока : 118 Мбайт (7%)
Язык : English
Default : Нет
Forced : Нет



Скачать Любовницы.Mistresses.(US).(сезон.02).(Константин.Макрис.и.др.).[2014.драма.триллер.WEB-DL].[1080p].[Dub.(Fox.Life)]+[Eng].torrent без регистрации
Золото ЗОЛОТАЯ РАЗДАЧА! СКАЧАННОЕ НЕ ЗАСЧИТЫВАЕТСЯ! Золото
Дата: Зарегистрирован   [ Тип: внутренний ] Как тут cкачать?
MAGNET ссылка
MAGNET ссылка


Скачать .torrent

29 KB

Статус: проверено DHT
Скачан: торрент - 5359 раз, раздача полностью - 11 раз
Размер: 21,99 GB
Оценка:  - (Голосов: 0)
Поблагодарили: 2
Поделиться ссылкой на эту раздачу с друзьями:
В контактеFacebookОдноклассникиTwitterLivejournalМой МирLiveinternet
 

 

МихаНЕзатор

[] 

Раздача обновлена
 
Показать сообщения:    


Вы не можете начинать темы
Вы не можете отвечать на сообщения
Вы не можете редактировать свои сообщения
Вы не можете удалять свои сообщения
Вы не можете голосовать в опросах
Вы не можете прикреплять файлы к сообщениям
Вы можете скачивать файлы