Loading...
Error

Скачать 8 миллионов способов умереть / 8 Million Ways to Die (Хэл Эшби / Hal Ashby) [1986, боевик, триллер, криминал, приключения, DVDRip] [AVO] (А. Михалев) торрент без регистрации

 
Статистика раздачи
Размер:  1,46 GB   |    Скачан:  101 раз
Сидов:  1  [  0 KB/s  ]  
 
Автор Сообщение

leon030982

[] 


8 миллионов способов умереть
8 Million Ways to Die


Страна: США
Жанр: боевик, триллер, криминал, приключения
Год выпуска: 1986
Продолжительность: 01:50:43
Перевод: Авторский (одноголосый закадровый) [А. Михалев]
Cубтитры: нет
Оригинальная аудиодорожка: нет

Режиссер: Хэл Эшби / Hal Ashby
В ролях: Джефф Бриджес, Розанна Аркетт, Александра Пол, Рэнди Брукс, Энди Гарсиа, Лиза Слоун, Криста Дентон, Вэнс Валенсия, Вильфредо Эрнандес, Луиза Лешин

Описание: Скаддер — детектив в департаменте шерифа. Во время очередного наркорейда он вынужден застрелить человека. Переживая по поводу этого инцидента, Скаддер начинает много пить, и из-за этого его увольняют с работы и распадается его брак. Во время лечения в Обществе Анонимных Алкоголиков он встречает таинственную незнакомку. Пытаясь помочь этой женщине, он погружается в мир проституции и наркотиков для того, чтобы найти убийцу. Во время расследования он постоянно находится на грани нового попадания в алкогольную зависимость.

Сэмпл
Исходник: DVD9
Качество: DVDRip
Формат: AVI
Видео кодек: XviD
Аудио кодек: AC3
Видео: 720х400 (1:80:1), XviD build 73 ~ 1 688 kbps, 25.000 fps, 0.24 bit/pixel
Аудио: 48 kHz, AC3 Dolby Digital, 2/0 (L,R), ~192.00 kbps avg (А. Михалев)

General
Format : AVI
Format/Info : Audio Video Interleave
File size : 1.46 GiB
Duration : 1h 50mn
Overall bit rate : 1 890 Kbps
Writing application : VirtualDubMod 1.5.10.2 (build 2540/release)
Writing library : VirtualDubMod build 2540/release
Video
ID : 0
Format : MPEG-4 Visual
Format profile : Advanced Simple@L5
Format settings, BVOP : 1
Format settings, QPel : No
Format settings, GMC : No warppoints
Format settings, Matrix : Custom
Codec ID : XVID
Codec ID/Hint : XviD
Duration : 1h 50mn
Bit rate : 1 688 Kbps
Width : 720 pixels
Height : 400 pixels
Display aspect ratio : 16:9
Frame rate : 25.000 fps
Color space : YUV
Chroma subsampling : 4:2:0
Bit depth : 8 bits
Scan type : Progressive
Compression mode : Lossy
Bits/(Pixel*Frame) : 0.234
Stream size : 1.31 GiB (89%)
Writing library : XviD 73
Audio
ID : 1
Format : AC-3
Format/Info : Audio Coding 3
Mode extension : CM (complete main)
Format settings, Endianness : Big
Codec ID : 2000
Duration : 1h 50mn
Bit rate mode : Constant
Bit rate : 192 Kbps
Channel(s) : 2 channels
Channel positions : Front: L R
Sampling rate : 48.0 KHz
Bit depth : 16 bits
Compression mode : Lossy
Stream size : 152 MiB (10%)
Alignment : Split accross interleaves
Interleave, duration : 40 ms (1.00 video frame)
Interleave, preload duration : 500 ms




Скачать 8.миллионов.способов.умереть.8.Million.Ways.to.Die.(Хэл.Эшби.Hal.Ashby).[1986.боевик.триллер.криминал.приключения.DVDRip].[AVO].(А.Михалев).torrent без регистрации
Золото ЗОЛОТАЯ РАЗДАЧА! СКАЧАННОЕ НЕ ЗАСЧИТЫВАЕТСЯ! Золото
Дата: Зарегистрирован   [ Тип: внутренний ] Как тут cкачать?
MAGNET ссылка
MAGNET ссылка


Скачать .torrent

15 KB

Статус: проверено DHT
Скачан: торрент - 101 раз, раздача полностью - 1 раз
Размер: 1,46 GB
Оценка:  5 (Голосов: 1)
Поблагодарили: 1
Поделиться ссылкой на эту раздачу с друзьями:
В контактеFacebookОдноклассникиTwitterLivejournalМой МирLiveinternet
 

 
Показать сообщения:    


Вы не можете начинать темы
Вы не можете отвечать на сообщения
Вы не можете редактировать свои сообщения
Вы не можете удалять свои сообщения
Вы не можете голосовать в опросах
Вы не можете прикреплять файлы к сообщениям
Вы можете скачивать файлы