Loading...
Error

Скачать Подпольная Империя / Boardwalk Empire (Полный 1-ый сезон) (Тимоти Ван Паттен, Аллен Култер) [2010, Драма, Криминал, HDRip] [AVO] (Юрий Сербин) торрент без регистрации

 
Статистика раздачи
Размер:  11,48 GB   |    Скачан:  392 раза
Сидов:  1  [  0 KB/s  ]  
 
Автор Сообщение

leon030982

[] 

Подпольная Империя / Boardwalk Empire

Год выпуска: 2010
Страна: США
Жанр: Драма, Криминал
Продолжительность: 1 x 01:12:21, 11 x ~00:55:00
Перевод: Авторский (одноголосый,закадровый) Юрий Сербин
Внимание!!! В переводе присутствует ненормативная лексика!
Режиссёр: Тимоти Ван Паттен, Аллен Култер
В ролях: Стив Бушеми, Майкл Питт, Ши Уигхэм, Майкл Шеннон, Келли Макдоналд, Алекса Палладино, Майкл Стулбарг, Стивен Грэм, Винсент Пьяцца, Пас де ла Уэрта
Описание: 1920 год. Через несколько часов Атлантик-Сити - столица развлечений и порока, как и вся Америка, вступит в эпоху «Сухого закона». Енох «Наки» Томпсон, днем - городской казначей, а ночью - хитроумный гангстер со связями на самом «верху», решает воспользоваться ситуацией и получить баснословные прибыли на подпольной торговле алкоголем. Однако не он один жаждет обогатиться на новом промысле...
Сэмпл
Качество: HDRip (исх. BDRip 720p DON)
Формат: AVI
Видео: 720x400 (16:9), 23.976 fps, XviD build 73 ~2000 kbps avg, 0.29 bit/pixel
Аудио: 48 kHz, AC3 Dolby Digital, 3/2 (L,C,R,l,r) + LFE ch, ~384 kbps
Complete name : Boardwalk Empire_Complete First Season\Boardwalk Empire.S01E01.Pilot.avi
Format : AVI
Format/Info : Audio Video Interleave
File size : 1.21 GiB
Duration : 1h 12mn
Overall bit rate : 2 393 Kbps
Writing application : VirtualDubMod 1.5.10.3 | www.virtualdub-fr.org || (build 2550/release)
Writing library : VirtualDubMod build 2550/release
Video #0
ID : 0
Format : MPEG-4 Visual
Format profile : Advanced Simple@L5
Format settings, BVOP : 1
Format settings, QPel : No
Format settings, GMC : No warppoints
Format settings, Matrix : Custom
Codec ID : XVID
Codec ID/Hint : XviD
Duration : 1h 12mn
Bit rate : 2 000 Kbps
Width : 720 pixels
Height : 400 pixels
Display aspect ratio : 16:9
Frame rate : 23.976 fps
Color space : YUV
Chroma subsampling : 4:2:0
Bit depth : 8 bits
Scan type : Progressive
Compression mode : Lossy
Bits/(Pixel*Frame) : 0.290
Stream size : 1.01 GiB (84%)
Writing library : XviD 73
Audio #1
ID : 1
Format : AC-3
Format/Info : Audio Coding 3
Mode extension : CM (complete main)
Format settings, Endianness : Big
Codec ID : 2000
Duration : 1h 12mn
Bit rate mode : Constant
Bit rate : 384 Kbps
Channel(s) : 6 channels
Channel positions : Front: L C R, Side: L R, LFE
Sampling rate : 48.0 KHz
Bit depth : 16 bits
Compression mode : Lossy
Stream size : 199 MiB (16%)
Alignment : Split accross interleaves
Interleave, duration : 42 ms (1.00 video frame)
Interleave, preload duration : 500 ms



Скачать Подпольная.Империя.Boardwalk.Empire.(Полный.1-ый.сезон).(Тимоти.Ван.Паттен.Аллен.Култер).[2010.Драма.Криминал.HDRip].[AVO].(Юрий.Сербин).torrent без регистрации
Золото ЗОЛОТАЯ РАЗДАЧА! СКАЧАННОЕ НЕ ЗАСЧИТЫВАЕТСЯ! Золото
Дата: Зарегистрирован   [ Тип: внутренний ] Как тут cкачать?
MAGNET ссылка
MAGNET ссылка


Скачать .torrent

30 KB

Статус: проверено DHT
Скачан: торрент - 392 раз, раздача полностью - 134 раз
Размер: 11,48 GB
Оценка:  5 (Голосов: 1)
Поблагодарили: 0
Поделиться ссылкой на эту раздачу с друзьями:
В контактеFacebookОдноклассникиTwitterLivejournalМой МирLiveinternet
 

 
Показать сообщения:    


Вы не можете начинать темы
Вы не можете отвечать на сообщения
Вы не можете редактировать свои сообщения
Вы не можете удалять свои сообщения
Вы не можете голосовать в опросах
Вы не можете прикреплять файлы к сообщениям
Вы можете скачивать файлы