Loading...
Error

Скачать Опасное трио / Lewis & Clark & George (Род МакКолл / Rod McCall) [1997, триллер, комедия, криминал, HDTVRip] [MVO] (СТС) + [AVO] (Сербин) торрент без регистрации

 
Статистика раздачи
Размер:  1,45 GB   |    Скачан:  126 раз
Сидов:  1  [  0 KB/s  ]  
 
Автор Сообщение

leon030982

[] 

Опасное трио
Lewis & Clark & George


Год выпуска: 1997
Страна: США
Жанр: триллер, комедия, криминал
Продолжительность: 01:22:08
Перевод №1: Профессиональный (многоголосый, закадровый) [ФильмЭкспорт по заказу СТС]
Перевод №2: Авторский (одноголосый, закадровый) Юрий Сербин

Режиссер: Род МакКолл / Rod McCall

В ролях: Роуз МакГоун (George), Дэн Гюнтер (Clark), Брайан Тейлор (Boyfriend), Сальватор Ксереб (Lewis), Арт ЛаФлёр (Fred), Джеймс Бролин (Reverend Red), Джерри Гарднер (Yo-Yo Man), Ричард Баттерфилд (Pickup Cowboy), Сэлли Джексон (Waitress), Сюзанн Мари (Nefertiti), Тамара Клеттербак (Blond Hooker), Холли Риддл (Betty)

Описание: Неотразимого Льюиса, отбывающего срок за убийство, и романтичного Кларка, пойманного за компьютерные махинации, объединяет общая цель. У них есть карта, которая откроет им дверь в беззаботное и счастливое будущее. Ради этого стоит совершить побег.
Но, вырвавшись на свободу и отправившись в рискованное путешествие на поиски своей мечты, они встречают молчаливую и обворожительную Джорджию. Льюис и Кларк не подозревают, что принесет им эта встреча.

СЭМПЛ
MPAA: R - Лицам до 17 лет обязательно присутствие взрослого

Качество: HDTVRip (Lewis.und.Clarke.und.George.1997.German.720p.HDTV.x264-CDD)
Формат: AVI
Видео кодек: XviD
Аудио кодек: AC3, MP3
Видео: 720x400 (1.80:1), 25 fps, XviD MPEG-4 ~2193 kbps avg, 0.30 bit/pixel
Аудио #1: 48 kHz, AC3 Dolby Digital, 2/0 (L,R) ch, ~192 kbps - MVO
Аудио #2: 48 kHz, MPEG Layer 3, 2 ch, ~128.00 kbps avg - AVO

Код:

За исходник дорожки №1 спасибо wetiL
Дорожка №2 --- Спасибо Who am I?
Общее
Полное имя : E:\Movies\Lewis&Clark&George.1997.HDTVRip.MVO.AVO.avi
Формат : AVI
Формат/Информация : Audio Video Interleave
Размер файла : 1,45 Гбайт
Продолжительность : 1 ч. 22 м.
Общий поток : 2529 Кбит/сек
Программа кодирования : VirtualDubMod 1.5.10.2 (build 2542/release)
Библиотека кодирования : VirtualDubMod build 2542/release
Видео
Идентификатор : 0
Формат : MPEG-4 Visual
Профиль формата : Advanced Simple@L5
Параметр BVOP формата : 1
Параметр QPel формата : Нет
Параметр GMC формата : Без точки перехода
Параметр матрицы формата : Выборочная
Идентификатор кодека : XVID
Идентификатор кодека/Подсказка : XviD
Продолжительность : 1 ч. 22 м.
Битрейт : 2194 Кбит/сек
Ширина : 720 пикселей
Высота : 400 пикселей
Соотношение сторон : 16:9
Частота кадров : 25,000 кадров/сек
Цветовое пространство : YUV
Субдискретизация насыщенности : 4:2:0
Битовая глубина : 8 бит
Тип развёртки : Прогрессивная
Метод сжатия : С потерями
Бит/(Пиксели*Кадры) : 0.305
Размер потока : 1,26 Гбайт (87%)
Библиотека кодирования : XviD 65
Аудио #1
Идентификатор : 1
Формат : AC-3
Формат/Информация : Audio Coding 3
Расширение режима : CM (complete main)
Параметр Endianness формата : Big
Идентификатор кодека : 2000
Продолжительность : 1 ч. 22 м.
Вид битрейта : Постоянный
Битрейт : 192 Кбит/сек
Каналы : 2 канала
Расположение каналов : Front: L R
Частота : 48,0 КГц
Битовая глубина : 16 бит
Метод сжатия : С потерями
Размер потока : 113 Мбайт (8%)
Выравнивание : Разделение по промежуткам
Продолжительность промежутка : 40 мс. (1,00 видеокадр)
Время предзагрузки промежутка : 500 мс.
Аудио #2
Идентификатор : 2
Формат : MPEG Audio
Версия формата : Version 1
Профиль формата : Layer 3
Режим : Joint stereo
Расширение режима : MS Stereo
Идентификатор кодека : 55
Идентификатор кодека/Подсказка : MP3
Продолжительность : 1 ч. 22 м.
Вид битрейта : Постоянный
Битрейт : 128 Кбит/сек
Каналы : 2 канала
Частота : 48,0 КГц
Метод сжатия : С потерями
Размер потока : 75,2 Мбайт (5%)
Выравнивание : Соединение по промежуткам
Продолжительность промежутка : 40 мс. (1,00 видеокадр)
Время предзагрузки промежутка : 504 мс.



Скачать Опасное.трио.Lewis.&.Clark.&.George.(Род.МакКолл.Rod.McCall).[1997.триллер.комедия.криминал.HDTVRip].[MVO].(СТС).+.[AVO].(Сербин).torrent без регистрации
Золото ЗОЛОТАЯ РАЗДАЧА! СКАЧАННОЕ НЕ ЗАСЧИТЫВАЕТСЯ! Золото
Дата: Зарегистрирован   [ Тип: внутренний ] Как тут cкачать?
MAGNET ссылка
MAGNET ссылка


Скачать .torrent

15 KB

Статус: проверено DHT
Скачан: торрент - 126 раз, раздача полностью - 18 раз
Размер: 1,45 GB
Оценка:  4,7 (Голосов: 3)
Поблагодарили: 2
Поделиться ссылкой на эту раздачу с друзьями:
В контактеFacebookОдноклассникиTwitterLivejournalМой МирLiveinternet
 

 

leon030982

[] 

любителям черного юмора рекомендуется к просмотрю ag смотреть в переводе Сербина
 
Показать сообщения:    


Вы не можете начинать темы
Вы не можете отвечать на сообщения
Вы не можете редактировать свои сообщения
Вы не можете удалять свои сообщения
Вы не можете голосовать в опросах
Вы не можете прикреплять файлы к сообщениям
Вы можете скачивать файлы