Loading...
Error

Скачать Безумно влюбленный / Innamorato pazzo (Франко Кастеллано / Franco Castellano) [1981 г., Комедия, DVDRip] [MVO] торрент без регистрации

 
Статистика раздачи
Размер:  745 MB   |    Скачан:  111 раз

Полного источника не было: 21 минута

 
Автор Сообщение

Shara

[] 

Безумно влюбленный / Innamorato pazzo
Год выпуска: 1981
Страна: Италия
Жанр: Комедия
Продолжительность: 01:36:59.040 (145476 frames)
Перевод: Профессиональный (многоголосый, закадровый)
Русские субтитры: нет
Режиссер: Франко Кастеллано / Franco Castellano
В ролях: Адриано Челентано /Adriano Celentano/, Орнелла Мути /Ornella Muti/, Адольфо Чели /Adolfo Celi/, Энцо Гаринеи /Enzo Garinei/, Франко Диогене /Franco Diogene/, Милла Саннонер
Описание: В одной из лучших итальянских комедий мы снова встречаем блистательный дуэт: Адриано Челентано и Орнеллу Мути. Парафраз знаменитого американского фильма "Римские каникулы" просто великолепен. На этот раз Челентано - невозмутимый и грубоватый малый Барнаба Чиккини - избалованный женским вниманием водитель автобуса в Риме. Однажды он случайно встречает принцессу небольшого княжества Сан-Тулип - красавицу Кристину. Но к чему приведет эта встреча - не знают ни он, ни она...
Качество: DVDRip
Формат: AVI
Видео кодек: XviD
Аудио кодек: MP3
Видео: 640x352 (1.82:1), 25 fps, XviD Final 1.0.3 (build 37) ~935 kbps avg, 0.17 bit/pixel
Аудио: 48 kHz, MPEG Layer 3, 2 ch, ~128.00 kbps avgСкриншоты Медиаинфо
General
Format : AVI
Format/Info : Audio Video Interleave
File size : 745 MiB
Duration : 1h 36mn
Overall bit rate : 1 073 Kbps
Writing application : VirtualDubMod 1.5.10.2 (build 2540/release)
Writing library : VirtualDubMod build 2540/release
Video
Format : MPEG-4 Visual
Format profile : Simple@L3
Format settings, BVOP : Yes
Format settings, QPel : No
Format settings, GMC : No warppoints
Format settings, Matrix : Default
Muxing mode : Packed bitstream
Codec ID : XVID
Codec ID/Hint : XviD
Duration : 1h 36mn
Bit rate : 936 Kbps
Width : 640 pixels
Height : 352 pixels
Display aspect ratio : 16/9
Frame rate : 25.000 fps
Resolution : 24 bits
Colorimetry : 4:2:0
Scan type : Progressive
Bits/(Pixel*Frame) : 0.166
Stream size : 649 MiB (87%)
Writing library : XviD 1.0.3 (UTC 2004-12-20)
Audio
Format : MPEG Audio
Format version : Version 1
Format profile : Layer 3
Codec ID : 55
Codec ID/Hint : MP3
Duration : 1h 36mn
Bit rate mode : Constant
Bit rate : 128 Kbps
Channel(s) : 2 channels
Sampling rate : 48.0 KHz
Resolution : 16 bits
Stream size : 88.8 MiB (12%)
Alignment : Aligned on interleaves
Interleave, duration : 40 ms (1.00 video frame)
Interleave, preload duration : 504 ms





Скачать Безумно.влюбленный.Innamorato.pazzo.(Франко.Кастеллано.Franco.Castellano).[1981.г.Комедия.DVDRip].[MVO].torrent без регистрации
Золото ЗОЛОТАЯ РАЗДАЧА! СКАЧАННОЕ НЕ ЗАСЧИТЫВАЕТСЯ! Золото
Дата: Зарегистрирован   [ Тип: внутренний ] Как тут cкачать?
MAGNET ссылка
MAGNET ссылка


Скачать .torrent

15 KB

Статус: проверено DHT
Скачан: торрент - 111 раз, раздача полностью - 3 раз
Размер: 745 MB
Оценка:  5 (Голосов: 1)
Поблагодарили: 4
Поделиться ссылкой на эту раздачу с друзьями:
В контактеFacebookОдноклассникиTwitterLivejournalМой МирLiveinternet
 

 
Показать сообщения:    


Вы не можете начинать темы
Вы не можете отвечать на сообщения
Вы не можете редактировать свои сообщения
Вы не можете удалять свои сообщения
Вы не можете голосовать в опросах
Вы не можете прикреплять файлы к сообщениям
Вы можете скачивать файлы