Loading...
Error

Скачать Черный Список / The Blacklist (сезон 02) [2014-2015, драма, криминал, боевик, триллер, детектив, WEB-DL][1080p] [MVO LostFilm]+[Eng]+[Sub Rus, Eng] торрент без регистрации

 
Статистика раздачи
Размер:  39,75 GB   |    Скачан:  574 раза
Сидов:  1  [  0 KB/s  ]  
 
Автор Сообщение

Shara

[] 

Черный Список / The Blacklist
Информация о фильме
Название: Черный Список
Оригинальное название: The Blacklist
Год выхода: 2014
Жанр: Драма, криминал, боевик, триллер, детектив
Режиссер: Джо Карнахан


В ролях: Джеймс Спэйдер, Меган Бун, Диего Клаттенхофф, Гарри Дж. Ленникс, Райан Игголд, Ильфенеш Хадера, Джессика Ши Элверсон, Чарльз Бэйкер, Дельфина Белль, Ник Блеймаер, Парминдер К. Награ



О фильме: Один из самых разыскиваемых беглецов ФБР в исполнении Джеймса Спейдера («Секс, ложь и видео», «Практика») неожиданно добровольно сдаётся властям. Самодовольный преступник-хитрец начинает играть с ФБР в каверзную многоходовую игру: он обещает помочь федералам поймать опаснейших преступников Америки при условии, что с ним будет работать неопытная сотрудница Лиз Кин. ФБР в лице Гарри Ленникса соглашается на странную сделку не без непредсказуемых последствий.







Страна: США
Продолжительность: 1 x ~ 00:43:00
Перевод: профессиональный (многоголосый, закадровый) - LostFilm



Файл
Кодек: x264
Качество: WEB-DL 1080p
Видео: MPEG-4 AVC, 5000 Кбит/с, 1916x1076, 23.976 кадр/с
Звук: Русский, английский (AC3, 6 ch, 384 Кбит/с)
Субтитры: Русские, английские


АНОНСЫ ПОПУЛЯРНЫХ РАЗДАЧ


Торрент обновлён, добавлена 22-я серия!

01. Лорд Балтимор / Lord Baltimore
02. Банк Монарх Дуглас / Monarch Douglas Bank
03. Доктор Джеймс Ковингтон / Dr. James Covington
04. Доктор Лайнус Крил / Dr. Linus Creel
05. Фронт / The Front
06. Картель Момбаса / The Mombasa Cartel
07. Скимитар / The Scimitar
08. Декабрист / The Decembrist
09. Лютер Брэкстон / Luther Braxton
10. Лютер Брэкстон. Развязка / Luther Braxton: Conclusion
11. Руслан Денисов / Ruslan Denisov
12. Семья Кеньон / The Kenyon Family
13. Охотник на оленей / The Deer Hunter
14. Т. Эрл Кинг VI / T. Earl King VI
15. Майор / The Major
16. Том Кин / Tom Keen
17. Программа "Долголетие" / The Longevity Initiative
18. Ванесса Круз / Vanessa Cruz
19. Леонард Кол / Leonard Caul
20. Квон Жанг / Quon Zhang
21. Каракурт / Karakurt
22. Том Коннелли / Tom Connolly
Общее
Уникальный идентификатор : 202624736836114761221309788061388046387 (0x98701AD5219D70608BEF561357A50033)
Полное имя : The.Blacklist.S02.1080p.WEB-DL.Rus.EngThe.Blacklist.S02E01.1080p.WEB-DL.Rus.Eng.mkv
Формат : Matroska
Версия формата : Version 4 / Version 2
Размер файла : 1,72 Гбайт
Продолжительность : 42 м.
Общий поток : 5727 Кбит/сек
Название фильма : Created by filin1984 for Кинозал.ТВ
Дата кодирования : UTC 2014-09-25 17:59:46
Программа кодирования : mkvmerge v6.9.1 ('Blue Panther') 64bit built on Apr 18 2014 18:23:38
Библиотека кодирования : libebml v1.3.0 + libmatroska v1.4.1

Видео
Идентификатор : 1
Формат : AVC
Формат/Информация : Advanced Video Codec
Профиль формата : High@L4.0
Параметр CABAC формата : Да
Параметр ReFrames формата : 4 кадра
Идентификатор кодека : V_MPEG4/ISO/AVC
Продолжительность : 42 м.
Битрейт : 4845 Кбит/сек
Ширина : 1916 пикселей
Высота : 1076 пикселей
Соотношение сторон : 16:9
Режим частоты кадров : Постоянный
Частота кадров : 23,976 кадра/сек
Цветовое пространство : YUV
Субдискретизация насыщенности : 4:2:0
Битовая глубина : 8 бит
Тип развёртки : Прогрессивная
Бит/(Пиксели*Кадры) : 0.098
Размер потока : 1,45 Гбайт (85%)
Заголовок : The Blacklist 2x01 (2014)
Язык : English
Default : Да
Forced : Нет
Основные цвета : BT.709
Характеристики трансфера : BT.709
Коэффициенты матрицы : BT.709

Аудио #1
Идентификатор : 2
Формат : AC-3
Формат/Информация : Audio Coding 3
Расширение режима : CM (complete main)
Параметр Endianness формата : Big
Идентификатор кодека : A_AC3
Продолжительность : 42 м.
Вид битрейта : Постоянный
Битрейт : 384 Кбит/сек
Каналы : 6 каналов
Расположение каналов : Front: L C R, Side: L R, LFE
Частота : 48,0 КГц
Битовая глубина : 16 бит
Метод сжатия : С потерями
Размер потока : 118 Мбайт (7%)
Заголовок : LostFilm
Язык : Russian
Default : Да
Forced : Нет

Аудио #2
Идентификатор : 3
Формат : AC-3
Формат/Информация : Audio Coding 3
Расширение режима : CM (complete main)
Параметр Endianness формата : Big
Идентификатор кодека : A_AC3
Продолжительность : 42 м.
Вид битрейта : Постоянный
Битрейт : 384 Кбит/сек
Каналы : 6 каналов
Расположение каналов : Front: L C R, Side: L R, LFE
Частота : 48,0 КГц
Битовая глубина : 16 бит
Метод сжатия : С потерями
Размер потока : 118 Мбайт (7%)
Заголовок : English
Язык : English
Default : Нет
Forced : Нет

Текст #1
Идентификатор : 4
Формат : UTF-8
Идентификатор кодека : S_TEXT/UTF8
Идентификатор кодека/Информация : UTF-8 Plain Text
Заголовок : Russian Sub
Язык : Russian
Default : Нет
Forced : Нет

Текст #2
Идентификатор : 5
Формат : UTF-8
Идентификатор кодека : S_TEXT/UTF8
Идентификатор кодека/Информация : UTF-8 Plain Text
Заголовок : English Sub
Язык : English
Default : Нет
Forced : Нет
Звук LostFilm 5.1 — k-marat-s. Русские субтитры — BS666.



Скачать Черный.Список.The.Blacklist.(сезон.02).[2014-2015.драма.криминал.боевик.триллер.детектив.WEB-DL][1080p].[MVO.LostFilm]+[Eng]+[Sub.Rus.Eng].torrent без регистрации
Золото ЗОЛОТАЯ РАЗДАЧА! СКАЧАННОЕ НЕ ЗАСЧИТЫВАЕТСЯ! Золото
Дата: Зарегистрирован   [ Тип: внутренний ] Как тут cкачать?
MAGNET ссылка
MAGNET ссылка


Скачать .torrent

52 KB

Статус: проверено DHT
Скачан: торрент - 574 раз, раздача полностью - 3 раз
Размер: 39,75 GB
Оценка:  - (Голосов: 0)
Поблагодарили: 5
Поделиться ссылкой на эту раздачу с друзьями:
В контактеFacebookОдноклассникиTwitterLivejournalМой МирLiveinternet
 

 
Показать сообщения:    


Вы не можете начинать темы
Вы не можете отвечать на сообщения
Вы не можете редактировать свои сообщения
Вы не можете удалять свои сообщения
Вы не можете голосовать в опросах
Вы не можете прикреплять файлы к сообщениям
Вы можете скачивать файлы