Loading...
Error

Скачать Вопросы и ответы / Q & A (Сидни Люмет / Sidney Lumet) [1990, драма, криминал, HDTVRip] [AVO] (Иванов) торрент без регистрации

 
Статистика раздачи
Размер:  1,45 GB   |    Скачан:  131 раз

Полного источника не было: 24 минуты

 
Автор Сообщение

leon030982

[] 

Вопросы и ответы / Q & A

Год выпуска: 1990
Страна: США
Жанр: драма, криминал
Продолжительность: 02:06:47
Перевод: Авторский (одноголосый, закадровый) [Михаил Иванов]
Cубтитры: нет

Режиссер: Сидни Люмет / Sidney Lumet

В ролях: Ник Нолти, Тимоти Хаттон, Арманд Ассанте, Патрик О'Нил, Дженни Люмет, Ли Ричардсон

Описание: Когда Майк Брэннан, бывалый нью-йоркский полицейский с крутым нравом, безжалостно расправляется с мелким гангстером, прокурор поручает молодому юристу Элу Фрэнсису провести формальное дознание, чтобы отчитаться перед законом и списать дело в архив.
Никто не сомневается, что Майк, для которого ненависть к ворам и убийцам стала наваждением, поступил правильно, но показания наркодилера Декса говорят об обратном. Оказавшись перед нелегким выбором, Эл решает провести справедливое расследование.
Он знает, что рискует не только честью, но и жизнью, ведь в суровом мире крутых копов и безжалостных бандитов предательство не прощается…



Качество видео: НDTVRip спасибо DIABLO93
Формат видео: AVI
Видео кодек: XviD
Аудио кодек: AC3
Видео: 720x400 (1.80:1), 25 fps, XviD build 50 ~1439 kbps avg, 0.20 bit/pixel
Аудио: 48 kHz, AC3 Dolby Digital, 2/0 (L,R) ch, ~192 kbps

Цитата:

Перевод: Авторский (одноголосый закадровый) [Михаил Иванов], за дорогу спасибо budulai-8
Полное имя : Вопросы и ответы 1990.avi
Формат : AVI
Формат/Информация : Audio Video Interleave
Размер файла : 1,45 Гбайт
Продолжительность : 2 ч. 6 м.
Общий поток : 1642 Кбит/сек
Программа кодирования : VirtualDubMod 1.5.10.2 (build 2540/release)
Библиотека кодирования : VirtualDubMod build 2540/release
Формат оригинала/Имя : Movie
Видео
Идентификатор : 0
Формат : MPEG-4 Visual
Профиль формата : Advanced Simple@L5
Параметр BVOP формата : 2
Параметр QPel формата : Нет
Параметр GMC формата : Без точки перехода
Параметр матрицы формата : Выборочная
Идентификатор кодека : XVID
Идентификатор кодека/Подсказка : XviD
Продолжительность : 2 ч. 6 м.
Битрейт : 1440 Кбит/сек
Ширина : 720 пикселей
Высота : 400 пикселей
Соотношение сторон : 16:9
Частота кадров : 25,000 кадров/сек
Цветовое пространство : YUV
Субдискретизация насыщенности : 4:2:0
Битовая глубина : 8 бит
Тип развёртки : Прогрессивная
Метод сжатия : С потерями
Бит/(Пиксели*Кадры) : 0.200
Размер потока : 1,28 Гбайт (88%)
Библиотека кодирования : XviD 1.2.1 (UTC 2008-12-04)
Аудио
Идентификатор : 1
Формат : AC-3
Формат/Информация : Audio Coding 3
Расширение режима : CM (complete main)
Параметр Endianness формата : Big
Идентификатор кодека : 2000
Продолжительность : 2 ч. 6 м.
Вид битрейта : Постоянный
Битрейт : 192 Кбит/сек
Каналы : 2 канала
Расположение каналов : Front: L R
Частота : 48,0 КГц
Битовая глубина : 16 бит
Метод сжатия : С потерями
Размер потока : 174 Мбайт (12%)
Выравнивание : Разделение по промежуткам
Продолжительность промежутка : 40 мс. (1,00 видеокадр)
Время предзагрузки промежутка : 500 мс.



Скачать Вопросы.и.ответы.Q.&.A.(Сидни.Люмет.Sidney.Lumet).[1990.драма.криминал.HDTVRip].[AVO].(Иванов).torrent без регистрации
Золото ЗОЛОТАЯ РАЗДАЧА! СКАЧАННОЕ НЕ ЗАСЧИТЫВАЕТСЯ! Золото
Дата: Зарегистрирован   [ Тип: внутренний ] Как тут cкачать?
MAGNET ссылка
MAGNET ссылка


Скачать .torrent

15 KB

Статус: проверено DHT
Скачан: торрент - 131 раз, раздача полностью - 10 раз
Размер: 1,45 GB
Оценка:  5 (Голосов: 1)
Поблагодарили: 1
Поделиться ссылкой на эту раздачу с друзьями:
В контактеFacebookОдноклассникиTwitterLivejournalМой МирLiveinternet
 

 
Показать сообщения:    


Вы не можете начинать темы
Вы не можете отвечать на сообщения
Вы не можете редактировать свои сообщения
Вы не можете удалять свои сообщения
Вы не можете голосовать в опросах
Вы не можете прикреплять файлы к сообщениям
Вы можете скачивать файлы