Loading...
Error

Скачать Пожарные Чикаго / Chicago Fire (Сезон 03, серии 01-23 из 23) (Джо Чаппелль / Joe Chappelle) [2014, Драма, WEB-DLRip] [VO] (Шадинский) торрент без регистрации

 
Статистика раздачи
Размер:  11,75 GB   |    Скачан:  447 раз
Сидов:  1  [  0 KB/s  ]  
 
Автор Сообщение

leon030982

[] 


Пожарные Чикаго / Chicago Fire

Год выпуска: 2014
Страна: США
Жанр: Драма
Продолжительность: ~00:43:00
Перевод: Профессиональный (одноголосый закадровый) | (Шадинский)
Режиссёр: Джо Чаппелль / Joe Chappelle
В ролях: Джесси Спенсер / Jesse Spencer, Тейлор Кинни / Taylor Kinney, Моника Реймунд / Monica Raymund, Лорен Джерман / Lauren German
Описание: Сериал рассказывает о самой тяжелой и опасной работе — пожарных и спасателей чикагского отделения Firehouse 51. Несмотря на повседневные геройства мужчин и женщин, их огромная самоотдача приводит к личным потерям. Главные герой Мэтью Кейси (Джесси Спенсер), прирожденный лидер и настоящий пожарный. Однако развод с женой заставляет его взглянуть по-новому на многие вещи. Кроме этого, Кейси постоянно находится в конфронтации с другим членом своей команды — лейтенантом Келли Северайдом (Тейлор Кинни)

Сэмпл
Качество: WEB-DLRip
Формат: AVI
Видео кодек: XviD
Аудио кодек: MP3
Видео: XviD, 624x352, 23.976 fps, ~1119 kbps avg, 0.212 bit/pixel
Аудио: 48 kHz, MP3, stereo 160 kbps | (Шадинский)
Аудио: 48 kHz, MP3, stereo 160 kbps

Код:

Format : AVI
Format/Info : Audio Video Interleave
File size : 447 MiB
Duration : 42mn 59s
Overall bit rate : 1 453 Kbps
Writing application : VirtualDubModRus 1.5.10.2 (build 2542/release)
Writing library : VirtualDubMod build 2542/release

Video
ID : 0
Format : MPEG-4 Visual
Format profile : Advanced Simple@L5
Format settings, BVOP : Yes
Format settings, QPel : No
Format settings, GMC : No warppoints
Format settings, Matrix : Default (H.263)
Codec ID : XVID
Codec ID/Hint : XviD
Duration : 42mn 59s
Bit rate : 1 119 Kbps
Width : 624 pixels
Height : 352 pixels
Display aspect ratio : 16:9
Frame rate : 23.976 fps
Color space : YUV
Chroma subsampling : 4:2:0
Bit depth : 8 bits
Scan type : Progressive
Compression mode : Lossy
Bits/(Pixel*Frame) : 0.212
Stream size : 344 MiB (77%)
Writing library : XviD 65

Audio #1
ID : 1
Format : MPEG Audio
Format version : Version 1
Format profile : Layer 3
Mode : Joint stereo
Codec ID : 55
Codec ID/Hint : MP3
Duration : 42mn 59s
Bit rate mode : Constant
Bit rate : 160 Kbps
Channel(s) : 2 channels
Sampling rate : 48.0 KHz
Compression mode : Lossy
Stream size : 49.2 MiB (11%)
Alignment : Aligned on interleaves
Interleave, duration : 42 ms (1.00 video frame)
Interleave, preload duration : 504 ms

Audio #2
ID : 2
Format : MPEG Audio
Format version : Version 1
Format profile : Layer 3
Mode : Joint stereo
Mode extension : MS Stereo
Codec ID : 55
Codec ID/Hint : MP3
Duration : 42mn 59s
Bit rate mode : Constant
Bit rate : 160 Kbps
Channel(s) : 2 channels
Sampling rate : 48.0 KHz
Compression mode : Lossy
Stream size : 49.2 MiB (11%)
Alignment : Aligned on interleaves
Interleave, duration : 42 ms (1.00 video frame)
Interleave, preload duration : 504 ms
Writing library : LAME3.99r
Encoding settings : -m j -V 4 -q 2 -lowpass 17.5 -b 160


Внимание! Раздача ведётся путём добавления новых серий; при каждом добавлении создётся новый торрент. Чтобы начать докачку новой серии, пользователям необходимо сделать следующее: (1) остановить скачивание, (2) удалить старый торрент у себя из клиента (старые серии удалять не надо), (3) скачать новый торрент и запустить его у себя в клиенте вместо старого, при этом указать клиенту путь в старую папку куда и должно происходить скачивание новых серий.
Ваш клиент при этом должен произвести хеширование (проверку) старой папки (если не производит сам - помогите ему сделать это), и будет докачивать только те серии которых у вас ещё нет. Старые серии при этом не удаляются, а продолжают раздаваться!
Eсли вы уже удалили старые серии, то предотвратить повторную закачку старых серий можно, отжав галочку в соответсвующих местах при запуске нового торрента.
+18-23-я серия!



Скачать Пожарные.Чикаго.Chicago.Fire.(Сезон.03.серии.01-23.из.23).(Джо.Чаппелль.Joe.Chappelle).[2014.Драма.WEB-DLRip].[VO].(Шадинский).torrent без регистрации
Золото ЗОЛОТАЯ РАЗДАЧА! СКАЧАННОЕ НЕ ЗАСЧИТЫВАЕТСЯ! Золото
Дата: Зарегистрирован   [ Тип: внутренний ] Как тут cкачать?
MAGNET ссылка
MAGNET ссылка


Скачать .torrent

32 KB

Статус: проверено DHT
Скачан: торрент - 447 раз, раздача полностью - 119 раз
Размер: 11,75 GB
Оценка:  5 (Голосов: 1)
Поблагодарили: 2
Поделиться ссылкой на эту раздачу с друзьями:
В контактеFacebookОдноклассникиTwitterLivejournalМой МирLiveinternet
 

 

leon030982

[] 

Код:

+2 серия!
 

leon030982

[] 

Код:

+3 серия!
 

leon030982

[] 

Код:

+4 серия
 

leon030982

[] 

Код:

+5 серия!
 

leon030982

[] 

Код:

+6 серия!
 

leon030982

[] 

Код:

обновлено
 

leon030982

[] 

Код:

+8 серия!
 

leon030982

[] 

+9 серия!
 

leon030982

[] 

Код:

+10-12 серия!
 

leon030982

[] 

Код:

+13-я серия!
 

leon030982

[] 

обновлено +16-17-я серия!
 

leon030982

[] 

Полный сезон az
 
Показать сообщения:    


Вы не можете начинать темы
Вы не можете отвечать на сообщения
Вы не можете редактировать свои сообщения
Вы не можете удалять свои сообщения
Вы не можете голосовать в опросах
Вы не можете прикреплять файлы к сообщениям
Вы можете скачивать файлы