Loading...
Error

Скачать Код / The Code (Сезон 01, серии 01-06 из 06) (Шон Сит) [2014, драма, триллер, криминал, WEB-DL] [720p] [MVO] (AlexFilm) торрент без регистрации

 
Статистика раздачи
Размер:  10,3 GB   |    Скачан:  237 раз
Сидов:  1  [  0 KB/s  ]  
 
Автор Сообщение

leon030982

[] 


Код / The Code



Год выпуска: 2014
Страна: Австралия
Жанр: драма, триллер, криминал
Продолжительность: 6 х ~56 мин
Озвучание: Профессиональное (многоголосое, закадровое) (AlexFilm)
Субтитры: нет
Режиссёр: Шон Сит

В ролях: Дэн Спилман, Эшли Цукерман, Аделе Перович, Люси Лоулесс, Аден Янг, Дэвид Уэнэм, Аарон Педерсен, Адам Гарсия, Челси Престон-Крейфорд, Пол Тассоне, Дэниэл Уилли, Дэвид Робертс, Аарон Л. МакГрат...
Описание: К двум братьям совершенно случайно в руки попадает важная информация. Чтобы сохранить ее в тайне, сильные мира сего готовы пойти на крайние меры.
Релиз:
Перевод: Константин Кривоногов
Монтаж и сведение звука: Михаил Шорыгин
Роли озвучивали:Ирина Воронова
Михаил Суслов
Сергей Пономарёв
Владимир Курдов

Качество: WEB-DL 720p
Формат: MKV
Видео кодек: H264
Аудио кодек: AC3
Видео: 960@1280x718 (16:9), 25 fps, MPEG-4 AVC, ~4000 kbps avg, 0.236 bit/pixel
Аудио Rus: 48 kHz, AC3 Dolby Digital, 2/0 (L,R) ch, ~192.00 kbps
Аудио Eng: 48 kHz, AC3 Dolby Digital, 2/0 (L,R) ch, ~192.00 kbps
Format : Matroska
Format version : Version 4 / Version 2
File size : 1.77 GiB
Duration : 55mn 53s
Overall bit rate : 4 532 Kbps
Movie name : The Code 1x01 @ AlexFilm
Encoded date : UTC 2014-09-25 13:03:05
Writing application : mkvmerge v6.6.0 ('The Edge Of The In Between') built on Dec 1 2013 17:55:00
Writing library : libebml v1.3.0 + libmatroska v1.4.1
Video
ID : 1
Format : AVC
Format/Info : Advanced Video Codec
Format profile : Main@L3.1
Format settings, CABAC : No
Format settings, ReFrames : 2 frames
Codec ID : V_MPEG4/ISO/AVC
Duration : 55mn 53s
Bit rate : 4 058 Kbps
Width : 960 pixels
Height : 718 pixels
Display aspect ratio : 16:9
Frame rate mode : Constant
Frame rate : 25.000 fps
Color space : YUV
Chroma subsampling : 4:2:0
Bit depth : 8 bits
Scan type : Progressive
Bits/(Pixel*Frame) : 0.236
Stream size : 1.58 GiB (90%)
Language : English
Default : Yes
Forced : No
Color primaries : BT.709
Transfer characteristics : BT.709
Matrix coefficients : BT.709
Audio #1
ID : 2
Format : AC-3
Format/Info : Audio Coding 3
Mode extension : CM (complete main)
Format settings, Endianness : Big
Codec ID : A_AC3
Duration : 55mn 53s
Bit rate mode : Constant
Bit rate : 192 Kbps
Channel(s) : 2 channels
Channel positions : Front: L R
Sampling rate : 48.0 KHz
Bit depth : 16 bits
Compression mode : Lossy
Stream size : 76.8 MiB (4%)
Title : DD2.0 AlexFilm
Language : Russian
Default : Yes
Forced : No
Audio #2
ID : 3
Format : AC-3
Format/Info : Audio Coding 3
Mode extension : CM (complete main)
Format settings, Endianness : Big
Codec ID : A_AC3
Duration : 55mn 53s
Bit rate mode : Constant
Bit rate : 192 Kbps
Channel(s) : 2 channels
Channel positions : Front: L R
Sampling rate : 48.0 KHz
Bit depth : 16 bits
Compression mode : Lossy
Stream size : 76.8 MiB (4%)
Title : DD2.0 Original
Language : English
Default : No
Forced : No
Внимание! Раздача ведётся путём добавления новых серий; при каждом добавлении создаётся новый торрент. Чтобы начать докачку новой серии, пользователям необходимо сделать следующее:
(1) остановить скачивание,
(2) удалить старый торрент у себя из клиента (старые серии удалять не надо),
(3) скачать новый торрент и запустить его у себя в клиенте вместо старого, при этом указать клиенту путь в старую папку куда и должно происходить скачивание новых серий.
Ваш клиент при этом должен произвести хеширование (проверку) старой папки (если не производит сам - помогите ему сделать это), и будет докачивать только те серии которых у вас ещё нет. Старые серии при этом не удаляются, а продолжают раздаваться!
Eсли вы уже удалили старые серии, то предотвратить повторную закачку старых серий можно, отжав галочку в соответствующих местах при запуске нового торрента. По возможности, желательно не удалять старые серии как можно дольше, чтобы релизёр не столько продолжал раздавать старые серии, а смог сконцентрироваться на новых.



Скачать Код.The.Code.(Сезон.01.серии.01-06.из.06).(Шон.Сит).[2014.драма.триллер.криминал.WEB-DL].[720p].[MVO].(AlexFilm).torrent без регистрации
Золото ЗОЛОТАЯ РАЗДАЧА! СКАЧАННОЕ НЕ ЗАСЧИТЫВАЕТСЯ! Золото
Дата: Зарегистрирован   [ Тип: внутренний ] Как тут cкачать?
MAGNET ссылка
MAGNET ссылка


Скачать .torrent

52 KB

Статус: проверено DHT
Скачан: торрент - 237 раз, раздача полностью - 61 раз
Размер: 10,3 GB
Оценка:  5 (Голосов: 2)
Поблагодарили: 6
Поделиться ссылкой на эту раздачу с друзьями:
В контактеFacebookОдноклассникиTwitterLivejournalМой МирLiveinternet
 

 

leon030982

[] 

2-я серия
 

leon030982

[] 

+3-4-я серии
 

leon030982

[] 

5-я серия
 

leon030982

[] 

+ 6-я серия! Финал сезона
 
Показать сообщения:    


Вы не можете начинать темы
Вы не можете отвечать на сообщения
Вы не можете редактировать свои сообщения
Вы не можете удалять свои сообщения
Вы не можете голосовать в опросах
Вы не можете прикреплять файлы к сообщениям
Вы можете скачивать файлы