Loading...
Error

Скачать Пандемия / Kansen rettô / Pandemic (Такахиса Дзэдзэ) [2009, фантастика, триллер, драма, BDRip-AVC] [VO (den904)]+[Jap] торрент без регистрации

 
Статистика раздачи
Размер:  3,71 GB   |    Скачан:  131 раз
Сидов:  1  [  0 KB/s  ]  
 
Автор Сообщение

МихаНЕзатор

[] 

Информация о фильме
Название: Пандемия
Оригинальное название: Kansen rettô / Pandemic
Год выхода: 2009
Жанр: фантастика, триллер, драма
Режиссер: Такахиса Дзэдзэ


В ролях: Сатоси Цумабуки, Реи Дэн, Рёко Кунинака, Юджи Танака, Чизуру Икеваки, Таканори Такеяма, Кен Мицуйси, Мидорико Кимура, Кюсаку Шимада, Акио Канеда, Бокузо Масана, Данте Карвер, Аяка Комацу, Акифуми Миура, Натсуо, Тайга, Итирота Миякава, Эрика Мабучи, Рёусеи Таяма, Коити Миура, Исао Такено, Юко Нито, Тору Кугасава, Кодзи Сато, Руна Мацумото, Ацуси Яманака, Сё Яманака, Акира Ямамото, Миоко Ёшикава, Хидеки Яманака



О фильме: Цуоши Мацуоко, доктор в больнице Токио, неправильно диагностирует болезнь пациента как простуду. Но после внезапной смерти пациента, он понимает, что это — очень серьезная болезнь, которая может заразить население. Болезнь распространяется, начинается эпидемия. Мацуоко изо всех сил пытается узнать причину болезни и найти лекарство вместе с доктором Эико Кобэяши.


Релиз от:

Работа с аудио, рип - Викс

Страна: Япония
Студия: Asahi Shimbunsha, Chubu-nippon Broadcasting Company (CBC), Chugoku Broadcasting (RCC), Dentsu, Hokkaido Broadcasting Co. Ltd., Horipro Inc., Mainichi Broadcasting System (MBS) K.K., RKB Mainichi Broadcasting Corporation, Shizuoka Broadcasting System (SBS), Shogakukan Inc., Toho Company, Tohoku Broadcasting Co., Tokyo Broadcasting System (TBS), Twins Japan, Yahoo Japan
Продолжительность: 02:18:16
Перевод: Любительский одноголосый (den904)



Файл
Кодек: x264
Качество: BDRip-AVC
Видео: MPEG-4 AVC, 3200 Кбит/с, 1024x552, 23.976 кадр/с
Звук:
Аудио #1: Русский (AC3, 2 ch, 192 Кбит/с) / Любительский одноголосый (den904)
Аудио #2: Японский (AC3, 6 ch, 448 Кбит/с)



АНОНСЫ ПОПУЛЯРНЫХ РАЗДАЧ
Огромная благодарность Media-Art-Club за созданный постер к раздаче!
Общее
Уникальный идентификатор : 208144041589765205641499238799225054098 (0x9C97159109ACD9E187B741B4826AE392)
Полное имя : H:ФильмСделать русский переводГотовые сделаные релизыPandemiya.2009.x264.BDRip-AVC-MediaClub.mkv
Формат : Matroska
Версия формата : Version 2
Размер файла : 3,71 Гбайт
Продолжительность : 2 ч. 18 м.
Общий поток : 3840 Кбит/сек
Название фильма : Pandemiya (2009) BDRip-AVC =MediaClub= [Викс]
Дата кодирования : UTC 2014-09-22 09:26:34
Программа кодирования : mkvmerge v5.8.0 ('No Sleep / Pillow') built on Sep 2 2012 15:37:04
Библиотека кодирования : libebml v1.2.3 + libmatroska v1.3.0

Видео
Идентификатор : 1
Формат : AVC
Формат/Информация : Advanced Video Codec
Профиль формата : High@L4.1
Параметр CABAC формата : Да
Параметр ReFrames формата : 9 кадров
Идентификатор кодека : V_MPEG4/ISO/AVC
Продолжительность : 2 ч. 18 м.
Битрейт : 3200 Кбит/сек
Ширина : 1024 пикселя
Высота : 552 пикселя
Соотношение сторон : 1,85:1
Режим частоты кадров : Постоянный
Частота кадров : 23,976 кадра/сек
Цветовое пространство : YUV
Субдискретизация насыщенности : 4:2:0
Битовая глубина : 8 бит
Тип развёртки : Прогрессивная
Бит/(Пиксели*Кадры) : 0.236
Размер потока : 3,02 Гбайт (81%)
Библиотека кодирования : x264 core 142 r2431 ac76440
Настройки программы : cabac=1 / ref=9 / deblock=1:-2:-2 / analyse=0x3:0x113 / me=umh / subme=11 / psy=1 / psy_rd=1.00:0.00 / mixed_ref=1 / me_range=48 / chroma_me=1 / trellis=2 / 8x8dct=1 / cqm=0 / deadzone=21,11 / fast_pskip=0 / chroma_qp_offset=-2 / threads=12 / lookahead_threads=2 / sliced_threads=0 / nr=0 / decimate=0 / interlaced=0 / bluray_compat=0 / constrained_intra=0 / bframes=8 / b_pyramid=2 / b_adapt=2 / b_bias=0 / direct=3 / weightb=1 / open_gop=0 / weightp=2 / keyint=240 / keyint_min=23 / scenecut=40 / intra_refresh=0 / rc_lookahead=40 / rc=2pass / mbtree=0 / bitrate=3200 / ratetol=1.0 / qcomp=0.60 / qpmin=0 / qpmax=69 / qpstep=4 / cplxblur=20.0 / qblur=0.5 / vbv_maxrate=50000 / vbv_bufsize=52500 / nal_hrd=none / filler=0 / ip_ratio=1.40 / pb_ratio=1.30 / aq=1:0.80
Язык : Japanese
Default : Да
Forced : Нет

Аудио #1
Идентификатор : 2
Формат : AC-3
Формат/Информация : Audio Coding 3
Расширение режима : CM (complete main)
Параметр Endianness формата : Big
Идентификатор кодека : A_AC3
Продолжительность : 2 ч. 18 м.
Вид битрейта : Постоянный
Битрейт : 192 Кбит/сек
Каналы : 2 канала
Расположение каналов : Front: L R
Частота : 48,0 КГц
Битовая глубина : 16 бит
Метод сжатия : С потерями
Размер потока : 190 Мбайт (5%)
Заголовок : LO (den904)
Язык : Russian
Default : Да
Forced : Нет

Аудио #2
Идентификатор : 3
Формат : AC-3
Формат/Информация : Audio Coding 3
Расширение режима : CM (complete main)
Параметр Endianness формата : Big
Идентификатор кодека : A_AC3
Продолжительность : 2 ч. 18 м.
Вид битрейта : Постоянный
Битрейт : 448 Кбит/сек
Каналы : 6 каналов
Расположение каналов : Front: L C R, Side: L R, LFE
Частота : 48,0 КГц
Битовая глубина : 16 бит
Метод сжатия : С потерями
Размер потока : 443 Мбайт (12%)
Язык : Japanese
Default : Нет
Forced : Нет

Меню
00:00:00.000 : :Chapter 01
00:03:48.311 : :Chapter 02
00:07:32.577 : :Chapter 03
00:13:27.848 : :Chapter 04
00:19:18.490 : :Chapter 05
00:24:39.186 : :Chapter 06
00:30:28.910 : :Chapter 07
00:38:10.746 : :Chapter 08
00:44:58.070 : :Chapter 09
00:47:14.790 : :Chapter 10
00:52:26.268 : :Chapter 11
00:58:39.724 : :Chapter 12
01:04:27.780 : :Chapter 13
01:11:14.728 : :Chapter 14
01:17:39.655 : :Chapter 15
01:22:42.832 : :Chapter 16
01:28:26.926 : :Chapter 17
01:34:12.772 : :Chapter 18
01:43:17.983 : :Chapter 19
01:50:58.151 : :Chapter 20
01:54:30.780 : :Chapter 21
01:58:58.673 : :Chapter 22
02:02:04.900 : :Chapter 23
02:11:52.821 : :Chapter 24
02:18:16.037 : :Chapter 25



Скачать Пандемия.Kansen.rettô.Pandemic.(Такахиса.Дзэдзэ).[2009.фантастика.триллер.драма.BDRip-AVC].[VO.(den904)]+[Jap].torrent без регистрации
Золото ЗОЛОТАЯ РАЗДАЧА! СКАЧАННОЕ НЕ ЗАСЧИТЫВАЕТСЯ! Золото
Дата: Зарегистрирован   [ Тип: внутренний ] Как тут cкачать?
MAGNET ссылка
MAGNET ссылка


Скачать .torrent

20 KB

Статус: проверено DHT
Скачан: торрент - 131 раз, раздача полностью - 4 раз
Размер: 3,71 GB
Оценка:  - (Голосов: 0)
Поблагодарили: 2
Поделиться ссылкой на эту раздачу с друзьями:
В контактеFacebookОдноклассникиTwitterLivejournalМой МирLiveinternet
 

 
Показать сообщения:    


Вы не можете начинать темы
Вы не можете отвечать на сообщения
Вы не можете редактировать свои сообщения
Вы не можете удалять свои сообщения
Вы не можете голосовать в опросах
Вы не можете прикреплять файлы к сообщениям
Вы можете скачивать файлы