Loading...
Error

Скачать Поездка в Индию / A Passage to India (Дэвид Лин) [1984, драма, приключения, история, экранизация, BDRip-AVC] [MVO]+[VO]+[Sub]x2 торрент без регистрации

 
Статистика раздачи
Размер:  4,81 GB   |    Скачан:  125 раз
Сидов:  1  [  0 KB/s  ]  
 
Автор Сообщение

Marsianka

[] 

Информация о фильме
Название: Зверь внутри
Название: Поездка в Индию
Оригинальное название: A Passage to India
Год выпуска: 1984
Жанр: драма, приключения, история, экранизация
Режиссер: Дэвид Лин
В ролях: Джуди Дэвис, Виктор Банерджи, Пегги Эшкрофт, Джеймс Фокс, Алек Гиннесс, Найджел Хэверс, Ричард Уилсон, Антония Пембертон, Майкл Калвер, Арт Малик, Саид Джаффри, Клайв Свифт, Энн Фербэнк, Рошан Сет, Сандра Хотц, Рашид Карапиет, Ишак Бакс, Моти Мэкан, Филлис Бозе, Сэлли Кингхорн, Пол Анил, Дина Патхак, Адам Блэквуд, Меллан Митчелл, Питер Хьюз

О фильме: Действие этого фильма происходит в двадцатые годы двадцатого века. Столкновение культур Востока и Запада показано на материале нетривиальной поездки молодой своенравной англичанки в Индию.



Страна: США, Великобритания
Студия: EMI Films Ltd., Home Box Office (HBO), Thorn EMI Screen Entertainment
Продолжительность: 02:43:58
Перевод: Профессиональный многоголосый, любительский одноголосый

Файл
Кодек: x264
Качество: BDRip (AVC)
Видео: MPEG-4 AVC, 3372 Кбит/с, 956x576, 23.976 кадр/с
Аудио #1: Русский (AC3, 2 ch, 192 Кбит/с) / Профессиональный многоголосый
Аудио #2: Русский (AC3, 2 ch, 192 Кбит/с) / Любительский одноголосый (lehachuev)
Аудио #3: Английский (AC3, 6 ch, 448 Кбит/с)
Субтитры: Русские, английские
Семпл
x264 [info]: frame I:1569 Avg QP:16.53 size: 96745
x264 [info]: frame P:60742 Avg QP:18.04 size: 37748
x264 [info]: frame B:173561 Avg QP:19.60 size: 9907

==================================

Уникальный идентификатор : 216612790549682876964532211737207494257 (0xA2F61B20914B5DD189A4674F679BD671)
Полное имя : E:MCPoezdka.v.Indiju.1984.BDRip(AVC)-MediaClubPoezdka.v.Indiju.1984.BDRip(AVC)-MediaClub.mkv
Формат : Matroska
Версия формата : Version 4 / Version 2
Размер файла : 4,81 Гбайт
Продолжительность : 2 ч. 43 м.
Общий поток : 4204 Кбит/сек
Название фильма : -= Release MediaClub =-
Дата кодирования : UTC 2014-09-23 21:42:34
Программа кодирования : mkvmerge v6.4.1 ('Omega Point') built on Sep 16 2013 22:05:10
Библиотека кодирования : libebml v1.3.0 + libmatroska v1.4.1

Видео
Идентификатор : 1
Формат : AVC
Формат/Информация : Advanced Video Codec
Профиль формата : High@L4.1
Параметр CABAC формата : Да
Параметр ReFrames формата : 10 кадров
Идентификатор кодека : V_MPEG4/ISO/AVC
Продолжительность : 2 ч. 43 м.
Битрейт : 3372 Кбит/сек
Ширина : 956 пикселей
Высота : 576 пикселей
Соотношение сторон : 1,660
Режим частоты кадров : Постоянный
Частота кадров : 23,976 кадра/сек
Цветовое пространство : YUV
Субдискретизация насыщенности : 4:2:0
Битовая глубина : 8 бит
Тип развёртки : Прогрессивная
Бит/(Пиксели*Кадры) : 0.255
Размер потока : 3,77 Гбайт (78%)
Заголовок : Poezdka.v.Indiju.1984.BDRip(AVC)-neni
Библиотека кодирования : x264 core 142 r2409+42 04be48a tMod [8-bit@4:2:0 X86_64]
Настройки программы : cabac=1 / ref=10 / deblock=1:-3:-3 / analyse=0x3:0x133 / me=umh / subme=11 / psy=1 / fade_compensate=0.00 / psy_rd=1.00:0.25 / mixed_ref=1 / me_range=48 / chroma_me=1 / trellis=2 / 8x8dct=1 / cqm=0 / deadzone=21,11 / fast_pskip=0 / chroma_qp_offset=-4 / threads=9 / lookahead_threads=2 / sliced_threads=0 / nr=0 / decimate=0 / interlaced=0 / bluray_compat=0 / constrained_intra=0 / fgo=0 / bframes=10 / b_pyramid=2 / b_adapt=2 / b_bias=0 / direct=3 / weightb=1 / open_gop=0 / weightp=2 / keyint=250 / keyint_min=23 / scenecut=40 / intra_refresh=0 / rc=2pass / mbtree=0 / bitrate=3372 / ratetol=1.0 / qcomp=0.60 / qpmin=0:0:0 / qpmax=69:69:69 / qpstep=4 / cplxblur=20.0 / qblur=0.5 / ip_ratio=1.40 / pb_ratio=1.30 / aq=2:1.00 / aq-sensitivity=10.00 / aq-factor=1.00:1.00:1.00 / aq2=0 / aq3=0
Язык : English
Default : Да
Forced : Нет

Аудио #1
Идентификатор : 2
Формат : AC-3
Формат/Информация : Audio Coding 3
Расширение режима : CM (complete main)
Параметр Endianness формата : Big
Идентификатор кодека : A_AC3
Продолжительность : 2 ч. 43 м.
Вид битрейта : Постоянный
Битрейт : 192 Кбит/сек
Каналы : 2 канала
Расположение каналов : Front: L R
Частота : 48,0 КГц
Битовая глубина : 16 бит
Метод сжатия : С потерями
Размер потока : 225 Мбайт (5%)
Заголовок : P
Язык : Russian
Default : Да
Forced : Нет

Аудио #2
Идентификатор : 3
Формат : AC-3
Формат/Информация : Audio Coding 3
Расширение режима : CM (complete main)
Параметр Endianness формата : Big
Идентификатор кодека : A_AC3
Продолжительность : 2 ч. 43 м.
Вид битрейта : Постоянный
Битрейт : 192 Кбит/сек
Каналы : 2 канала
Расположение каналов : Front: L R
Частота : 48,0 КГц
Битовая глубина : 16 бит
Метод сжатия : С потерями
Размер потока : 225 Мбайт (5%)
Заголовок : L1 (lehachuev)
Язык : Russian
Default : Нет
Forced : Нет

Аудио #3
Идентификатор : 4
Формат : AC-3
Формат/Информация : Audio Coding 3
Расширение режима : CM (complete main)
Параметр Endianness формата : Big
Идентификатор кодека : A_AC3
Продолжительность : 2 ч. 43 м.
Вид битрейта : Постоянный
Битрейт : 448 Кбит/сек
Каналы : 6 каналов
Расположение каналов : Front: L C R, Side: L R, LFE
Частота : 48,0 КГц
Битовая глубина : 16 бит
Метод сжатия : С потерями
Размер потока : 525 Мбайт (11%)
Заголовок : Original
Язык : English
Default : Нет
Forced : Нет

Текст #1
Идентификатор : 5
Формат : UTF-8
Идентификатор кодека : S_TEXT/UTF8
Идентификатор кодека/Информация : UTF-8 Plain Text
Заголовок : RUS
Язык : Russian
Default : Нет
Forced : Нет

Текст #2
Идентификатор : 6
Формат : UTF-8
Идентификатор кодека : S_TEXT/UTF8
Идентификатор кодека/Информация : UTF-8 Plain Text
Заголовок : ENG
Язык : English
Default : Нет
Forced : Нет

Меню
00:00:00.000 : :Chapter 01
00:09:28.777 : :Chapter 02
00:19:38.051 : :Chapter 03
00:32:43.378 : :Chapter 04
00:47:13.914 : :Chapter 05
00:58:32.426 : :Chapter 06
01:05:17.956 : :Chapter 07
01:20:15.102 : :Chapter 08
01:31:39.911 : :Chapter 09
01:37:11.075 : :Chapter 10
01:47:29.401 : :Chapter 11
01:55:59.661 : :Chapter 12
02:06:39.717 : :Chapter 13
02:15:14.272 : :Chapter 14
02:25:12.829 : :Chapter 15
02:35:58.432 : :Chapter 16
Релиз от: Rip by



Скачать Поездка.в.Индию.A.Passage.to.India.(Дэвид.Лин).[1984.драма.приключения.история.экранизация.BDRip-AVC].[MVO]+[VO]+[Sub]x2.torrent без регистрации
Золото ЗОЛОТАЯ РАЗДАЧА! СКАЧАННОЕ НЕ ЗАСЧИТЫВАЕТСЯ! Золото
Дата: Зарегистрирован   [ Тип: внутренний ] Как тут cкачать?
MAGNET ссылка
MAGNET ссылка


Скачать .torrent

13 KB

Статус: проверено DHT
Скачан: торрент - 125 раз, раздача полностью - 3 раз
Размер: 4,81 GB
Оценка:  - (Голосов: 0)
Поблагодарили: 2
Поделиться ссылкой на эту раздачу с друзьями:
В контактеFacebookОдноклассникиTwitterLivejournalМой МирLiveinternet
 

 
Показать сообщения:    


Вы не можете начинать темы
Вы не можете отвечать на сообщения
Вы не можете редактировать свои сообщения
Вы не можете удалять свои сообщения
Вы не можете голосовать в опросах
Вы не можете прикреплять файлы к сообщениям
Вы можете скачивать файлы