Loading...
Error

Скачать Теория Большого Взрыва / The Big Bang Theory (сезон 08) (Марк Сендроуски, Питер Чакос, Энтони Джозеф) [2014, ситком, комедия, WEB-DL] [720p] [VO (Кураж-Бамбей)]+[Eng]+[Sub (Rus, Eng)] торрент без регистрации

 
Статистика раздачи
Размер:  15,46 GB   |    Скачан:  6031 раз

Полного источника не было: 21 минута

 
Автор Сообщение

МихаНЕзатор

[] 

Теория Большого Взрыва / The Big Bang Theory



Название: Теория Большого Взрыва
Оригинальное название: The Big Bang Theory
Год выхода: 2014
Жанр: ситком, комедия
Режиссер: Марк Сендроуски, Питер Чакос, Энтони Джозеф Рич



В ролях: Джонни Галэки, Джим Парсонс, Кейли Куоко, Саймон Хелберг, Кунал Найяр, Майем Биалик, Мелисса Рауш, Кэрол Энн Сьюзи, Кевин Суссман, Арти Манн, Брайан Джордж, Элис Эмтер, Сара Гилберт, Джон Росс Боуи, Уил Уитон, Лори Меткаф, Верни Уотсон-Джонсон, Кристин Барански, Джошуа Малина, Кейси Сэндер, Кэти Леклерк
О фильме:
Два блестящих физика, Леонард и Шелдон, считают себя «великими умами». Но их гениальность ничуть не помогает им общаться с людьми, особенно с женщинами. Всё начинает меняться, когда напротив них поселяется блондинка Пенни. Леонард начинает интересоваться ею, однако Шелдон понимает, что мечтам его друга не суждено сбыться («Вы с ней два разных биологических вида»). У главных героев есть странные друзья: Говард Воловиц, любящий употреблять фразы на шести разных языках, включая русский, и Раджеш Кутрапали, который не может ни слова сказать девушкам, если не выпьет хотя бы немного алкоголя.

Страна: США, Chuck Lorre Productions, Warner Bros. Television
Продолжительность: 2 x ~ 00:21:00
Перевод: Профессиональный одноголосый (Кураж-Бамбей)
Качество: WEB-DL 720p
Видео: MPEG-4 AVC, ~ 4070 Кбит/с, 1280x718
Звук: Русский (AC3, 2 ch, 192 Кбит/с), английский (AC3, 6 ch, 384 Кбит/с)
Субтитры: Русские, английские



АНОНСЫ ПОПУЛЯРНЫХ РАЗДАЧ


Торрент обновлён, добавлена 24-я серия!
Общее
Уникальный идентификатор : 243597640994390053605712399444994606034 (0xB74332F95A4417118D55E6B1158AC3D2)
Полное имя : E:TBBT_S08_KBTBBT.S08E01.WEB-DL.720p.mkv
Формат : Matroska
Версия формата : Version 2
Размер файла : 720 Мбайт
Продолжительность : 21 м.
Общий поток : 4740 Кбит/сек
Дата кодирования : UTC 2014-09-26 23:54:59
Программа кодирования : mkvmerge v7.2.0 ('On Every Street') 64bit built on Sep 13 2014 15:52:10
Библиотека кодирования : libebml v1.3.0 + libmatroska v1.4.1
Attachment : Yes / Yes / Yes / Yes

Видео
Идентификатор : 1
Формат : AVC
Формат/Информация : Advanced Video Codec
Профиль формата : High@L3.1
Параметр CABAC формата : Нет
Параметр ReFrames формата : 2 кадра
Идентификатор кодека : V_MPEG4/ISO/AVC
Продолжительность : 21 м.
Битрейт : 4070 Кбит/сек
Ширина : 1280 пикселей
Высота : 718 пикселей
Соотношение сторон : 16:9
Режим частоты кадров : Постоянный
Частота кадров : 23,976 кадра/сек
Цветовое пространство : YUV
Субдискретизация насыщенности : 4:2:0
Битовая глубина : 8 бит
Тип развёртки : Прогрессивная
Бит/(Пиксели*Кадры) : 0.185
Размер потока : 618 Мбайт (86%)
Язык : English
Default : Да
Forced : Нет
Основные цвета : BT.709
Характеристики трансфера : BT.709
Коэффициенты матрицы : BT.709

Аудио #1
Идентификатор : 2
Формат : AC-3
Формат/Информация : Audio Coding 3
Расширение режима : CM (complete main)
Параметр Endianness формата : Big
Идентификатор кодека : A_AC3
Продолжительность : 21 м.
Вид битрейта : Постоянный
Битрейт : 192 Кбит/сек
Каналы : 2 канала
Расположение каналов : Front: L R
Частота : 48,0 КГц
Битовая глубина : 16 бит
Метод сжатия : С потерями
Размер потока : 29,2 Мбайт (4%)
Заголовок : Kuraj-Bambey
Язык : Russian
Default : Да
Forced : Нет

Аудио #2
Идентификатор : 3
Формат : AC-3
Формат/Информация : Audio Coding 3
Расширение режима : CM (complete main)
Параметр Endianness формата : Big
Идентификатор кодека : A_AC3
Продолжительность : 21 м.
Вид битрейта : Постоянный
Битрейт : 384 Кбит/сек
Каналы : 6 каналов
Расположение каналов : Front: L C R, Side: L R, LFE
Частота : 48,0 КГц
Битовая глубина : 16 бит
Метод сжатия : С потерями
Размер потока : 58,3 Мбайт (8%)
Заголовок : Original
Язык : English
Default : Нет
Forced : Нет

Текст #1
Идентификатор : 4
Формат : UTF-8
Идентификатор кодека : S_TEXT/UTF8
Идентификатор кодека/Информация : UTF-8 Plain Text
Заголовок : 666-Team
Язык : Russian
Default : Нет
Forced : Нет

Текст #2
Идентификатор : 5
Формат : UTF-8
Идентификатор кодека : S_TEXT/UTF8
Идентификатор кодека/Информация : UTF-8 Plain Text
Язык : English
Default : Нет
Forced : Нет



Скачать Теория.Большого.Взрыва.The.Big.Bang.Theory.(сезон.08).(Марк.Сендроуски.Питер.Чакос.Энтони.Джозеф).[2014.ситком.комедия.WEB-DL].[720p].[VO.(Кураж-Бамбей)]+[Eng]+[Sub.(Rus.Eng)].torrent без регистрации
Золото ЗОЛОТАЯ РАЗДАЧА! СКАЧАННОЕ НЕ ЗАСЧИТЫВАЕТСЯ! Золото
Дата: Зарегистрирован   [ Тип: внутренний ] Как тут cкачать?
MAGNET ссылка
MAGNET ссылка


Скачать .torrent

79 KB

Статус: проверено DHT
Скачан: торрент - 6031 раз, раздача полностью - 146 раз
Размер: 15,46 GB
Оценка:  4,7 (Голосов: 6)
Поблагодарили: 13
Поделиться ссылкой на эту раздачу с друзьями:
В контактеFacebookОдноклассникиTwitterLivejournalМой МирLiveinternet
 

 
Показать сообщения:    


Вы не можете начинать темы
Вы не можете отвечать на сообщения
Вы не можете редактировать свои сообщения
Вы не можете удалять свои сообщения
Вы не можете голосовать в опросах
Вы не можете прикреплять файлы к сообщениям
Вы можете скачивать файлы