Loading...
Error

Скачать Королева Марго / La Reine Margot / Queen Margot (Патрис Шеро) [1994, Драма, мелодрама, биография, история, BDRip] [New Director's Cut] [AVO] (Ю.Сербин) + [Original Fra] + subs (rus, eng, fra) торрент без регистрации

 
Статистика раздачи
Размер:  3,4 GB   |    Скачан:  104 раза

Полного источника не было: 23 минуты

 
Автор Сообщение

leon030982

[] 

Королева Марго / La Reine Margot / Queen Margot


Год выпуска: 1994
Страна: Франция, Италия, Германия
Жанр: Драма, мелодрама, биография, история
Продолжительность: 02:38:37
Перевод: Авторский (одноголосый) [Ю.Сербин]
Оригинальная звуковая дорожка: French (отдельно)
Субтитры: Русские, Английские, Французские (внешние srt*)
Режиссер: Патрис Шеро / Patrice Chereau

В ролях: Изабель Аджани, Даниель Отой, Жан-Юг Англад, Венсан Перес, Вирна Лизи, Доминик Блан, Паскаль Греггори, Клаудио Амендола, Мигель Бозе

О фильме: Август 1572 года. Францию раздирает религиозная война. Чтобы восстановить мир в стране, прекрасная и гордая принцесса Марго, сестра католического короля Карла IX, должна выйти замуж за протестанта Генриха Наваррского. А после свадьбы произошла кровавая резня Варфоломеевской ночи, организованная жестокой и коварной Екатериной Медичи.
Погибли тысячи протестантов, а один из них, тяжело раненный дворянин по имени Ла Моль, в отчаянной попытке спасти свою жизнь постучался в дверь Марго.

Семпл
Релиз:
Автор: kingsize87


Качество: BDRip (источник: / BDRemux / 1080p)
Формат: AVI
Видео кодек: XviD
Аудио кодек: AC3
Видео: 704x384 (1.83:1), 23.976 fps, XviD build 65 ~2166 kbps avg, 0.33 bit/pixel
Аудио #1: 48 kHz, AC3 Dolby Digital, 3/2 (L,C,R,l,r) + LFE ch, ~448.00 kbps avg rus [AVO]
Аудио #2: 48 kHz, AC3 Dolby Digital, 3/2 (L,C,R,l,r) + LFE ch, ~448.00 kbps avg fra (отдельно)

Формат : AVI
Формат/Информация : Audio Video Interleave
Профиль формата : OpenDML
Размер файла : 2,90 Гбайт
Продолжительность : 2 ч. 38 м.
Общий поток : 2622 Кбит/сек
Название фильма : Королева Марго / La Reine Margot / Queen Margot [New Director's Cut] (1994) BDRip
Режиссёр : kingsize87
Программа кодирования : VirtualDubMod 1.5.10.2 (build 2540/release)
Правообладатель : HQCLUB
Примечание : 27.09.2014
Видео
Идентификатор : 0
Формат : MPEG-4 Visual
Профиль формата : Advanced Simple@L5
Параметр BVOP формата : 1
Параметр QPel формата : Нет
Параметр GMC формата : Без точки перехода
Параметр матрицы формата : Выборочная
Идентификатор кодека : XVID
Идентификатор кодека/Подсказка : XviD
Продолжительность : 2 ч. 38 м.
Битрейт : 2163 Кбит/сек
Ширина : 704 пикселя
Высота : 384 пикселя
Соотношение сторон : 1,85:1
Частота кадров : 23,976 кадра/сек
Цветовое пространство : YUV
Субдискретизация насыщенности : 4:2:0
Битовая глубина : 8 бит
Тип развёртки : Прогрессивная
Метод сжатия : С потерями
Бит/(Пиксели*Кадры) : 0.334
Размер потока : 2,40 Гбайт (83%)
Библиотека кодирования : XviD 65
Аудио
Идентификатор : 1
Формат : AC-3
Формат/Информация : Audio Coding 3
Расширение режима : CM (complete main)
Параметр Endianness формата : Big
Идентификатор кодека : 2000
Продолжительность : 2 ч. 38 м.
Вид битрейта : Постоянный
Битрейт : 448 Кбит/сек
Каналы : 6 каналов
Расположение каналов : Front: L C R, Side: L R, LFE
Частота : 48,0 КГц
Битовая глубина : 16 бит
Метод сжатия : С потерями
Размер потока : 508 Мбайт (17%)
Выравнивание : Разделение по промежуткам
Продолжительность промежутка : 42 мс. (1,00 видеокадр)
Время предзагрузки промежутка : 500 мс.

Цитата:* Исходный диск приобретен в рамках сервиса "Копилка: Помоги с Blu-ray". Благодарим: Latander, tambov68, exact.
* Перевод Юрия Сербина выполнен спонсорами ресурса e180: Hattori Hanzo, Некрасов, denis_mgn_1987, Nadoelo, zeleniy, motel, Foots, Партизан, muha, Kastro, luka69, chontvari, Ken, Drodder, uchitel538, minnesotawild, Roman Lee, Vladimir, Эдуард, jorn2, kondratzx, dsk71, GKillah, carnivale, Tio. ВСЕМ СПАСИБО!
* The new Director's Cut of La Reine Margot reinstates footage that is not present on Pathe's current R2 DVD release of the film. For example, the short sequence in which Margot and La Mole make love and are then seen wrapped in a red blanket is not present on Pathe's DVD release (portion of it is on the R1 DVD release).



Скачать Королева.Марго.La.Reine.Margot.Queen.Margot.(Патрис.Шеро).[1994.Драма.мелодрама.биография.история.BDRip].[New.Director's.Cut].[AVO].(Ю.Сербин).+.[Original.Fra].+.subs.(rus.eng.fra).torrent без регистрации
Золото ЗОЛОТАЯ РАЗДАЧА! СКАЧАННОЕ НЕ ЗАСЧИТЫВАЕТСЯ! Золото
Дата: Зарегистрирован   [ Тип: внутренний ] Как тут cкачать?
MAGNET ссылка
MAGNET ссылка


Скачать .torrent

18 KB

Статус: проверено DHT
Скачан: торрент - 104 раз, раздача полностью - 1 раз
Размер: 3,4 GB
Оценка:  5 (Голосов: 1)
Поблагодарили: 3
Поделиться ссылкой на эту раздачу с друзьями:
В контактеFacebookОдноклассникиTwitterLivejournalМой МирLiveinternet
 

 
Показать сообщения:    


Вы не можете начинать темы
Вы не можете отвечать на сообщения
Вы не можете редактировать свои сообщения
Вы не можете удалять свои сообщения
Вы не можете голосовать в опросах
Вы не можете прикреплять файлы к сообщениям
Вы можете скачивать файлы