Loading...
Error

Скачать Все меры предосторожности / Extreme Prejudice (Уолтер Хилл / Walter Hill) [1987 г., боевик, драма, криминал, вестерн, HDRip] 2x[AVO] (Гаврилов, Горчаков) торрент без регистрации

 
Статистика раздачи
Размер:  1,48 GB   |    Скачан:  108 раз
Сидов:  1  [  0 KB/s  ]  
 
Автор Сообщение

leon030982

[] 

Все меры предосторожности / Extreme Prejudice
Страна: США
Жанр: боевик, драма, криминал, вестерн
Год выпуска: 1987
Продолжительность: 01:40:44
Перевод 1: Авторский (одноголосый, закадровый) [Андрей Гаврилов]
Перевод 2: Авторский (одноголосый, закадровый) [Василий Горчаков]
Cубтитры: нет

Режиссер: Уолтер Хилл / Walter Hill

В ролях: Ник Нолти, Пауэрс Бут, Майкл Айронсайд, Мария Кончита Алонсо, Рип Торн, Клэнси Браун, Уильям Форсайт, Мэтт Малхерн, Лэрри Б. Скотт, Дэн Туллис мл.

Описание: Джек Бентин, неуязвимый техасский рейнджер, должен проявить крутой характер. Ведь его друг детства — один из главарей контрабандной перевозки наркотиков через мексиканскую границу, и шесть агентов спецслужб получают задание захватить наркоторговца. Захочет ли Джек защитить своего друга?



Качество видео: НDRip [спасибо Consul]
Формат видео: AVI
Видео кодек: XviD
Аудио кодек: AC3
Видео : 720x400 (1.80:1), 25 fps, XviD build 73 ~1712 kbps avg, 0.24 bit/pixel
Аудио #1: 48 kHz, AC3 Dolby Digital, 2/0 (L,R) ch, ~192 kbps [Гаврилов]
Аудио #2: 48 kHz, AC3 Dolby Digital, 2/0 (L,R) ch, ~192 kbps [Горчаков]

Цитата:

в дорожке Гаврилова есть вставки Горчакова, за дороги спасибо budulai-8
Полное имя : Все меры предосторожности.avi
Формат : AVI
Формат/Информация : Audio Video Interleave
Размер файла : 1,48 Гбайт
Продолжительность : 1 ч. 40 м.
Общий поток : 2107 Кбит/сек
Программа кодирования : VirtualDubMod 1.5.10.2 (build 2540/release)
Библиотека кодирования : VirtualDubMod build 2540/release
Видео
Идентификатор : 0
Формат : MPEG-4 Visual
Профиль формата : Advanced Simple@L5
Параметр BVOP формата : 1
Параметр QPel формата : Нет
Параметр GMC формата : Без точки перехода
Параметр матрицы формата : Выборочная
Идентификатор кодека : XVID
Идентификатор кодека/Подсказка : XviD
Продолжительность : 1 ч. 40 м.
Битрейт : 1714 Кбит/сек
Ширина : 720 пикселей
Высота : 400 пикселей
Соотношение сторон : 16:9
Частота кадров : 25,000 кадров/сек
Цветовое пространство : YUV
Субдискретизация насыщенности : 4:2:0
Битовая глубина : 8 бит
Тип развёртки : Прогрессивная
Метод сжатия : С потерями
Бит/(Пиксели*Кадры) : 0.238
Размер потока : 1,21 Гбайт (81%)
Библиотека кодирования : XviD 73
Аудио #1
Идентификатор : 1
Формат : AC-3
Формат/Информация : Audio Coding 3
Расширение режима : CM (complete main)
Параметр Endianness формата : Big
Идентификатор кодека : 2000
Продолжительность : 1 ч. 40 м.
Вид битрейта : Постоянный
Битрейт : 192 Кбит/сек
Каналы : 2 канала
Расположение каналов : Front: L R
Частота : 48,0 КГц
Битовая глубина : 16 бит
Метод сжатия : С потерями
Размер потока : 138 Мбайт (9%)
Выравнивание : Разделение по промежуткам
Продолжительность промежутка : 40 мс. (1,00 видеокадр)
Время предзагрузки промежутка : 500 мс.
Аудио #2
Идентификатор : 2
Формат : AC-3
Формат/Информация : Audio Coding 3
Расширение режима : CM (complete main)
Параметр Endianness формата : Big
Идентификатор кодека : 2000
Продолжительность : 1 ч. 38 м.
Вид битрейта : Постоянный
Битрейт : 192 Кбит/сек
Каналы : 2 канала
Расположение каналов : Front: L R
Частота : 48,0 КГц
Битовая глубина : 16 бит
Метод сжатия : С потерями
Размер потока : 135 Мбайт (9%)
Выравнивание : Разделение по промежуткам
Продолжительность промежутка : 41 мс. (1,02 видеокадр)
Время предзагрузки промежутка : 500 мс.



Скачать Все.меры.предосторожности.Extreme.Prejudice.(Уолтер.Хилл.Walter.Hill).[1987.г.боевик.драма.криминал.вестерн.HDRip].2x[AVO].(Гаврилов.Горчаков).torrent без регистрации
Золото ЗОЛОТАЯ РАЗДАЧА! СКАЧАННОЕ НЕ ЗАСЧИТЫВАЕТСЯ! Золото
Дата: Зарегистрирован   [ Тип: внутренний ] Как тут cкачать?
MAGNET ссылка
MAGNET ссылка


Скачать .torrent

15 KB

Статус: проверено DHT
Скачан: торрент - 108 раз, раздача полностью - 6 раз
Размер: 1,48 GB
Оценка:  5 (Голосов: 1)
Поблагодарили: 2
Поделиться ссылкой на эту раздачу с друзьями:
В контактеFacebookОдноклассникиTwitterLivejournalМой МирLiveinternet
 

 
Показать сообщения:    


Вы не можете начинать темы
Вы не можете отвечать на сообщения
Вы не можете редактировать свои сообщения
Вы не можете удалять свои сообщения
Вы не можете голосовать в опросах
Вы не можете прикреплять файлы к сообщениям
Вы можете скачивать файлы